<?xml version="1.0" standalone="no"?>
<!DOCTYPE svg PUBLIC "-//W3C//DTD SVG 1.1//EN" "http://www.w3.org/Graphics/SVG/1.1/DTD/svg11.dtd" >
<svg xmlns="http://www.w3.org/2000/svg" xmlns:xlink="http://www.w3.org/1999/xlink" version="1.1">
<metadata>
Created by FontForge 20201107 at Tue Jul 31 22:59:54 2018
 By 
Mark Bloom and Joe Leadbeater (c) 2018
</metadata>
<defs>
<font id="Aeonik-Bold" horiz-adv-x="600" >
  <font-face 
    font-family="Aeonik"
    font-weight="700"
    font-stretch="normal"
    units-per-em="1000"
    panose-1="2 1 5 3 3 3 0 0 0 0"
    ascent="800"
    descent="-200"
    x-height="514"
    cap-height="700"
    bbox="-407 -206 2172 924"
    underline-thickness="86"
    underline-position="-200"
    unicode-range="U+0020-1F10C"
  />
<missing-glyph horiz-adv-x="620" 
d="M80 700h460v-768h-460v768z" />
    <glyph glyph-name="fi" unicode="fi" horiz-adv-x="597" 
d="M420 592q-23 23 -23 57t23 56.5t58 22.5t58.5 -22.5t23.5 -56.5t-23.5 -57t-58.5 -23t-58 23zM548 0h-141v395h-184v-395h-141v395h-85v119h85v45q0 68 39 104.5t116 36.5h99v-120h-71q-22 0 -32 -10t-10 -32v-24h325v-514z" />
    <glyph glyph-name="f_f.liga" unicode="ff" horiz-adv-x="680" 
d="M548 538v-24h129v-119h-129v-395h-141v395h-184v-395h-141v395h-85v119h85v45q0 68 39 104.5t116 36.5h99v-120h-71q-22 0 -32 -10t-10 -32v-24h184v45q0 68 39.5 104.5t115.5 36.5h116v-120h-87q-43 0 -43 -42z" />
    <glyph glyph-name="f_f_i.liga" unicode="ffi" horiz-adv-x="923" 
d="M745.5 592q-23.5 23 -23.5 57t23.5 56.5t58.5 22.5t58.5 -22.5t23.5 -56.5t-23.5 -57t-58.5 -23t-58.5 23zM874 0h-141v395h-185v-395h-141v395h-184v-395h-141v395h-85v119h85v45q0 68 39 104.5t116 36.5h99v-120h-71q-22 0 -32 -10t-10 -32v-24h184v45q0 68 39.5 104.5
t115.5 36.5h99v-120h-70q-43 0 -43 -42v-24h326v-514z" />
    <glyph glyph-name="f_f_t.liga" unicode="fft" horiz-adv-x="1007" 
d="M996 119v-119h-116q-148 0 -148 147v248h-184v-395h-141v395h-184v-395h-141v395h-85v119h85v45q0 68 39 104.5t116 36.5h99v-120h-71q-22 0 -32 -10t-10 -32v-24h184v45q0 68 39.5 104.5t115.5 36.5h99v-120h-70q-43 0 -43 -42v-24h184v144h142v-144h117v-119h-117v-225
q0 -27 11.5 -39t38.5 -12h72z" />
    <glyph glyph-name="f_t.liga" unicode="ft" horiz-adv-x="681" 
d="M671 119v-119h-117q-147 0 -147 147v248h-184v-395h-141v395h-85v119h85v45q0 68 39 104.5t116 36.5h99v-120h-71q-22 0 -32 -10t-10 -32v-24h184v144h141v-144h117v-119h-117v-225q0 -27 11.5 -39t38.5 -12h73z" />
    <glyph glyph-name="t_t.liga" unicode="tt" horiz-adv-x="688" 
d="M677 119v-119h-117q-147 0 -147 147v248h-190v-225q0 -27 11.5 -39t38.5 -12h60v-119h-104q-147 0 -147 147v248h-85v119h85v144h141v-144h190v144h141v-144h118v-119h-118v-225q0 -27 12 -39t38 -12h73z" />
    <glyph glyph-name=".notdef" horiz-adv-x="620" 
d="M80 700h460v-768h-460v768z" />
    <glyph glyph-name=".null" horiz-adv-x="0" 
 />
    <glyph glyph-name="nonmarkingreturn" horiz-adv-x="333" 
 />
    <glyph glyph-name="space" unicode=" " horiz-adv-x="248" 
 />
    <glyph glyph-name="exclam" unicode="!" horiz-adv-x="289" 
d="M92 217l-23 483h151l-21 -483h-107zM84 137.5q24 23.5 60 23.5q37 0 61 -23.5t24 -60.5q0 -36 -24 -59.5t-61 -23.5q-36 0 -60 23.5t-24 59.5q0 37 24 60.5z" />
    <glyph glyph-name="quotedbl" unicode="&#x22;" horiz-adv-x="413" 
d="M34 636q0 31 19.5 50t54.5 19q36 0 55 -19t19 -49q0 -11 -1 -17l-29 -191h-88l-29 191q-1 6 -1 16zM231 636q0 31 19.5 50t54.5 19q36 0 55 -19t19 -49q0 -11 -1 -17l-29 -191h-88l-29 191q-1 6 -1 16z" />
    <glyph glyph-name="numbersign" unicode="#" horiz-adv-x="562" 
d="M160 606h116l-22 -141h100l21 141h115l-21 -141h69v-117h-86l-13 -90h78v-117h-95l-21 -141h-116l22 141h-100l-21 -141h-115l21 141h-69v117h86l13 90h-78v117h95zM237 348l-13 -90h100l13 90h-100z" />
    <glyph glyph-name="dollar" unicode="$" horiz-adv-x="625" 
d="M488 381.5q48 -19.5 77.5 -59t29.5 -105.5q0 -85 -60.5 -145t-157.5 -74v-105h-124v107q-99 17 -159.5 79.5t-61.5 150.5l147 -2q4 -52 42.5 -83.5t102.5 -31.5q53 0 86.5 22.5t33.5 62.5q0 28 -18.5 44.5t-52 26t-103.5 23.5q-69 13 -116 33.5t-76.5 61t-29.5 107.5
q0 80 56.5 137t148.5 71v106h124v-108q90 -17 146 -75t58 -139h-147q-5 45 -38 72.5t-87 27.5q-50 0 -80 -21t-30 -60q0 -28 18 -43.5t51 -25t102 -22.5q70 -13 118 -32.5z" />
    <glyph glyph-name="percent" unicode="%" horiz-adv-x="934" 
d="M69 621.5q24 39.5 65.5 62t93.5 22.5t94 -22.5t65.5 -62t23.5 -88.5t-23.5 -88.5t-65.5 -62t-94 -22.5t-93.5 22.5t-65.5 62t-24 88.5t24 88.5zM158 0l480 700h139l-480 -700h-139zM278 584q-20 20 -50 20q-29 0 -49 -20t-20 -51t20 -51t49 -20q30 0 50 20t20 51t-20 51z
M546.5 255.5q23.5 39.5 65.5 62t94 22.5t93.5 -22.5t65.5 -62t24 -88.5t-24 -88.5t-65.5 -62t-93.5 -22.5t-94 22.5t-65.5 62t-23.5 88.5t23.5 88.5zM755 217.5q-20 20.5 -49 20.5q-30 0 -50 -20.5t-20 -50.5q0 -31 20 -51t50 -20q29 0 49 20t20 51q0 30 -20 50.5z" />
    <glyph glyph-name="ampersand" unicode="&#x26;" horiz-adv-x="804" 
d="M637.5 120.5q10.5 -3.5 28.5 -3.5h71v-117h-93q-43 0 -76.5 11.5t-60.5 39.5l-12 12q-43 -35 -88 -52t-99 -17q-110 0 -180 48.5t-70 139.5q0 57 33.5 108t112.5 86q-33 41 -44 72.5t-11 77.5q0 51 28 92t78 64.5t113 23.5q54 0 99 -21.5t71 -59t26 -84.5
q0 -56 -35 -100.5t-124 -81.5l2 -2l111 -118l88 139h133l-147 -217l23 -24q12 -13 22.5 -16.5zM308.5 585q-21.5 -22 -21.5 -55q0 -29 11 -49.5t38 -50.5q50 22 72.5 48.5t22.5 59.5q0 31 -19 50t-49 19q-33 0 -54.5 -22zM424 139l-157 167q-34 -21 -48.5 -47t-14.5 -60
q0 -46 30.5 -71t82.5 -25q55 0 107 36z" />
    <glyph glyph-name="quotesingle" unicode="'" horiz-adv-x="216" 
d="M34 636q0 31 19.5 50t54.5 19q36 0 55 -19t19 -49q0 -11 -1 -17l-29 -191h-88l-29 191q-1 6 -1 16z" />
    <glyph glyph-name="parenleft" unicode="(" horiz-adv-x="336" 
d="M356 700q-92 -124 -129 -223t-37 -227q0 -126 37.5 -225t128.5 -225h-148q-82 111 -119.5 218t-37.5 232q0 126 38 233t119 217h148z" />
    <glyph glyph-name="parenright" unicode=")" horiz-adv-x="336" 
d="M256 483q38 -107 38 -233q0 -125 -37.5 -232t-119.5 -218h-148q91 126 128.5 225t37.5 225q0 128 -37 227t-129 223h148q81 -110 119 -217z" />
    <glyph glyph-name="asterisk" unicode="*" horiz-adv-x="434" 
d="M401 548l-115 -41l79 -87l-74 -63l-75 105l-74 -104l-74 63l80 87l-115 42l39 88l101 -52l-4 114h95l-4 -115l101 52z" />
    <glyph glyph-name="plus" unicode="+" horiz-adv-x="515" 
d="M193 504h128v-160h152v-119h-152v-161h-128v161h-151v119h151v160z" />
    <glyph glyph-name="comma" unicode="," horiz-adv-x="248" 
d="M190 121.5q29 -36.5 29 -94.5q0 -83 -50 -127t-137 -45v73q46 1 70.5 20t24.5 48q0 10 -1 14q-16 -8 -32 -8q-29 0 -48.5 19.5t-19.5 56.5q0 33 25.5 56.5t62.5 23.5q47 0 76 -36.5z" />
    <glyph glyph-name="hyphen" unicode="-" horiz-adv-x="430" 
d="M40 227v114h350v-114h-350z" />
    <glyph glyph-name="period" unicode="." horiz-adv-x="248" 
d="M63 137.5q24 23.5 61 23.5q36 0 60.5 -24t24.5 -60t-24.5 -59.5t-60.5 -23.5q-37 0 -61 23.5t-24 59.5q0 37 24 60.5z" />
    <glyph glyph-name="slash" unicode="/" horiz-adv-x="339" 
d="M-43 -200l293 900h133l-294 -900h-132z" />
    <glyph glyph-name="zero" unicode="0" horiz-adv-x="646" 
d="M35 366q0 103 36.5 180t102 118.5t149.5 41.5q85 0 150.5 -41.5t102 -118.5t36.5 -180v-32q0 -105 -36.5 -181.5t-102 -117.5t-150.5 -41t-150 41t-101.5 117.5t-36.5 181.5v32zM428.5 525.5q-39.5 58.5 -105.5 58.5q-65 0 -104.5 -58.5t-39.5 -164.5v-22
q0 -106 39.5 -164.5t104.5 -58.5q66 0 105.5 58.5t39.5 164.5v22q0 106 -39.5 164.5z" />
    <glyph glyph-name="one" unicode="1" horiz-adv-x="369" 
d="M307 700v-700h-144v447q-13 -5 -38 -5h-117v119h105q26 0 39.5 20.5t13.5 50.5v68h141z" />
    <glyph glyph-name="two" unicode="2" horiz-adv-x="576" 
d="M296 331q51 41 75 75t24 74q0 51 -30.5 78.5t-81.5 27.5q-49 0 -79.5 -33t-30.5 -89v-11h-145v19q0 66 31.5 120t89.5 84.5t134 30.5q123 0 190.5 -60t67.5 -161q0 -72 -35.5 -124.5t-109.5 -112.5l-157 -128h305v-121h-513v111z" />
    <glyph glyph-name="three" unicode="3" horiz-adv-x="610" 
d="M533 306.5q43 -41.5 43 -111.5q0 -60 -33.5 -105.5t-95.5 -70.5t-144 -25q-125 0 -198 63.5t-73 175.5h143q1 -58 39 -92t97 -34q51 0 84.5 27t33.5 73q0 42 -33 66t-95 24h-69v115h61q58 0 89.5 25.5t31.5 68.5q0 41 -29 64t-76 23q-51 0 -84 -28t-34 -76h-141
q1 101 69.5 159t183.5 58q121 0 188.5 -51t67.5 -136q0 -62 -37.5 -101t-99.5 -54q68 -16 111 -57.5z" />
    <glyph glyph-name="four" unicode="4" horiz-adv-x="626" 
d="M21 269l309 431h178v-430h97v-120h-97v-150h-141v150h-346v119zM158 270h209v290z" />
    <glyph glyph-name="five" unicode="5" horiz-adv-x="597" 
d="M455.5 446.5q53.5 -30.5 84 -85t30.5 -124.5q0 -78 -35.5 -132.5t-95.5 -82.5t-134 -28q-79 0 -139 30.5t-93 83t-36 117.5h143q6 -49 40.5 -81t84.5 -32q49 0 84.5 32.5t35.5 92.5q0 55 -33 90.5t-87 35.5q-36 0 -70 -16.5t-48 -56.5h-139l20 410h459v-121h-328l-8 -156
q57 54 145 54q66 0 119.5 -30.5z" />
    <glyph glyph-name="six" unicode="6" horiz-adv-x="617" 
d="M51.5 210q-16.5 61 -16.5 133q0 115 35 197t100 124.5t153 42.5q100 0 169 -55t81 -149h-142q-10 42 -41 65t-78 23q-68 0 -104.5 -52.5t-36.5 -149.5v-17l9 15q25 38 68.5 60t96.5 22q70 0 123.5 -30t83.5 -83.5t30 -123.5q0 -71 -32.5 -125t-92 -83.5t-136.5 -29.5
q-72 0 -128.5 28.5t-93.5 81.5q-31 45 -47.5 106zM407 322q-32 35 -85 35t-86.5 -35t-33.5 -90t32.5 -90t85.5 -35t86 35.5t33 89.5q0 55 -32 90z" />
    <glyph glyph-name="seven" unicode="7" horiz-adv-x="546" 
d="M11 700h513v-93l-308 -607h-156l306 578h-355v122z" />
    <glyph glyph-name="eight" unicode="8" horiz-adv-x="608" 
d="M531.5 308q41.5 -44 41.5 -118q0 -58 -31.5 -102.5t-92 -69t-145.5 -24.5t-145.5 24.5t-92 69t-31.5 102.5q0 73 41 117t105 58q-54 15 -90 55t-36 102q0 55 29.5 97t86 65t133.5 23t133.5 -23t86 -65t29.5 -97q0 -58 -36.5 -100.5t-89.5 -56.5q63 -13 104.5 -57z
M226 580q-30 -25 -30 -65q0 -41 30 -66.5t78 -25.5q47 0 77.5 26t30.5 66t-30.5 65t-77.5 25q-48 0 -78 -25zM393 124.5q36 29.5 36 74.5q0 46 -36 76.5t-89 30.5q-54 0 -90 -30.5t-36 -76.5q0 -45 36 -74.5t90 -29.5q53 0 89 29.5z" />
    <glyph glyph-name="nine" unicode="9" horiz-adv-x="617" 
d="M564 496.5q18 -63.5 18 -138.5q0 -174 -75 -269t-213 -95q-108 0 -174.5 53.5t-78.5 150.5h141q10 -42 40.5 -65t78.5 -23q70 0 106.5 53t36.5 149v18q-14 -20 -16 -22q-25 -35 -65.5 -54.5t-90.5 -19.5q-70 0 -124 29t-83.5 82t-29.5 123q0 69 32.5 123.5t92 85
t136.5 30.5q70 0 124.5 -26.5t91.5 -75.5q34 -45 52 -108.5zM210 381q32 -35 85 -35t86.5 35t33.5 89t-32.5 89t-85.5 35t-86 -35t-33 -89t32 -89z" />
    <glyph glyph-name="colon" unicode=":" horiz-adv-x="248" 
d="M63 485.5q24 23.5 61 23.5q36 0 60.5 -24t24.5 -60t-24.5 -59.5t-60.5 -23.5q-37 0 -61 23.5t-24 59.5q0 37 24 60.5zM63 137.5q24 23.5 61 23.5q36 0 60.5 -24t24.5 -60t-24.5 -59.5t-60.5 -23.5q-37 0 -61 23.5t-24 59.5q0 37 24 60.5z" />
    <glyph glyph-name="semicolon" unicode=";" horiz-adv-x="248" 
d="M190 121.5q29 -36.5 29 -94.5q0 -83 -50 -127t-137 -45v73q46 1 70.5 20t24.5 48q0 10 -1 14q-16 -8 -32 -8q-29 0 -48.5 19.5t-19.5 56.5q0 33 25.5 56.5t62.5 23.5q47 0 76 -36.5zM58 484.5q24 23.5 61 23.5q36 0 60.5 -24t24.5 -60t-24.5 -59.5t-60.5 -23.5
q-37 0 -61 23.5t-24 59.5q0 37 24 60.5z" />
    <glyph glyph-name="less" unicode="&#x3c;" horiz-adv-x="515" 
d="M60 218v132l395 164v-136l-238 -94l238 -94v-136z" />
    <glyph glyph-name="equal" unicode="=" horiz-adv-x="515" 
d="M52 327v119h411v-119h-411zM52 112v118h411v-118h-411z" />
    <glyph glyph-name="greater" unicode="&#x3e;" horiz-adv-x="515" 
d="M455 350v-132l-395 -164v136l238 94l-238 94v136z" />
    <glyph glyph-name="question" unicode="?" horiz-adv-x="534" 
d="M51.5 585.5q29.5 55.5 85.5 88t133 32.5q73 0 126.5 -24t82.5 -67t29 -98q0 -65 -26.5 -102.5t-77.5 -72.5q-45 -30 -63.5 -52t-18.5 -52v-13h-132v28q0 57 25.5 89t80.5 64q35 22 51 45t16 53q0 36 -25 58.5t-67 22.5q-48 0 -77 -33.5t-29 -88.5h-143q0 67 29.5 122.5z
M200.5 132.5q23.5 22.5 59.5 22.5t59.5 -22.5t23.5 -57.5t-24 -58t-59 -23t-59 23t-24 58t23.5 57.5z" />
    <glyph glyph-name="at" unicode="@" horiz-adv-x="981" 
d="M106 467q62 100 169 156.5t235 56.5q125 0 222 -46.5t151 -129.5t54 -189q0 -79 -32 -140t-87.5 -94.5t-124.5 -33.5q-44 0 -72.5 22t-35.5 57l-3 13q-20 -41 -61 -66t-90 -25q-44 0 -82.5 23t-61.5 66.5t-23 102.5q0 64 26.5 116.5t72 83t102.5 30.5q49 0 80 -19t38 -45
l18 57h113l-32 -279l-1 -13q0 -23 10 -33t31 -10q28 0 53.5 25t41.5 69t16 98q0 83 -39.5 145.5t-113.5 96.5t-173 34q-98 0 -180.5 -46.5t-130.5 -127t-48 -178.5q0 -151 93.5 -232.5t261.5 -81.5q119 0 219 51l-4 -91q-37 -22 -97 -35t-131 -13q-128 0 -229.5 49
t-159 139.5t-57.5 211.5q0 125 62 225zM552 346q-22 23 -57 23q-42 0 -71 -35t-29 -85q0 -47 22.5 -73t56.5 -26q41 0 70.5 35.5t29.5 94.5q0 43 -22 66z" />
    <glyph glyph-name="A" unicode="A" horiz-adv-x="698" 
d="M4 0l256 700h180l254 -700h-161l-54 153h-266l-54 -153h-155zM253 274h185l-93 266z" />
    <glyph glyph-name="B" unicode="B" horiz-adv-x="646" 
d="M326 700q122 0 189 -48t67 -136q0 -65 -36 -105t-102 -52q78 -10 120.5 -50t42.5 -112q0 -92 -70 -144.5t-198 -52.5h-279v700h266zM210 412h120q48 0 75 23t27 62t-27 62t-75 23h-120v-170zM210 119h130q54 0 83.5 23t29.5 64q0 43 -30 66.5t-83 23.5h-130v-177z" />
    <glyph glyph-name="C" unicode="C" horiz-adv-x="702" 
d="M73.5 537.5q41.5 80.5 119 124.5t182.5 44q82 0 147 -32t105 -90t48 -134h-150q-13 60 -54.5 94.5t-103.5 34.5q-84 0 -133 -63t-49 -166q0 -102 49 -165.5t133 -63.5q62 0 103.5 34.5t54.5 94.5h150q-8 -76 -48 -134t-105 -90t-147 -32q-105 0 -182.5 44t-119 124.5
t-41.5 187.5t41.5 187.5z" />
    <glyph glyph-name="D" unicode="D" horiz-adv-x="688" 
d="M60 700h243q105 0 185.5 -44.5t124 -124t43.5 -181.5t-43.5 -181.5t-124 -124t-185.5 -44.5h-243v700zM303 125q95 0 147.5 61.5t52.5 163.5t-52.5 163.5t-147.5 61.5h-93v-450h93z" />
    <glyph glyph-name="E" unicode="E" horiz-adv-x="571" 
d="M60 700h470v-129h-320v-157h260v-123h-260v-162h331v-129h-481v700z" />
    <glyph glyph-name="F" unicode="F" horiz-adv-x="544" 
d="M60 700h462v-129h-312v-164h256v-123h-256v-284h-150v700z" />
    <glyph glyph-name="G" unicode="G" horiz-adv-x="749" 
d="M74 537.5q42 80.5 120.5 124.5t184.5 44q83 0 149 -32t106.5 -90t49.5 -133h-148q-14 59 -56 93.5t-105 34.5q-58 0 -101 -29t-66 -81t-23 -119q0 -103 50.5 -166t139.5 -63q65 0 115 35.5t60 104.5v9h-174v119h313v-389h-104l-16 87q-31 -41 -83 -67t-121 -26
q-99 0 -174.5 44t-117 125t-41.5 187q0 107 42 187.5z" />
    <glyph glyph-name="H" unicode="H" horiz-adv-x="697" 
d="M60 700h150v-281h278v281h150v-700h-150v289h-278v-289h-150v700z" />
    <glyph glyph-name="I" unicode="I" horiz-adv-x="269" 
d="M60 700h150v-700h-150v700z" />
    <glyph glyph-name="J" unicode="J" horiz-adv-x="397" 
d="M337 700v-514q0 -88 -48.5 -137t-137.5 -49h-129v130h83q44 0 63 20.5t19 64.5v485h150z" />
    <glyph glyph-name="K" unicode="K" horiz-adv-x="683" 
d="M60 699h150v-314l280 314h182l-257 -288l274 -411h-180l-200 295l-99 -111v-184h-150v699z" />
    <glyph glyph-name="L" unicode="L" horiz-adv-x="509" 
d="M60 0v700h150v-571h278v-129h-428z" />
    <glyph glyph-name="M" unicode="M" horiz-adv-x="892" 
d="M60 700h197l194 -514l188 514h193v-700h-143v469l-182 -469h-122l-182 469v-469h-143v700z" />
    <glyph glyph-name="N" unicode="N" horiz-adv-x="700" 
d="M60 0v700h136l297 -441v441h148v-700h-137l-297 441v-441h-147z" />
    <glyph glyph-name="O" unicode="O" horiz-adv-x="757" 
d="M682 167.5q-44 -81.5 -123 -127.5t-180 -46t-180 46t-123 127.5t-44 182.5t44 182.5t123 127.5t180 46t180 -46t123 -127.5t44 -182.5t-44 -182.5zM209 232q24 -52 68 -81.5t102 -29.5q57 0 101 29.5t68 81.5t24 118t-24 118t-68 81.5t-101 29.5q-58 0 -102 -29.5
t-68 -81.5t-24 -118t24 -118z" />
    <glyph glyph-name="P" unicode="P" horiz-adv-x="622" 
d="M345 700q75 0 132.5 -28.5t89 -81.5t31.5 -123t-31.5 -122.5t-89 -81t-132.5 -28.5h-135v-235h-150v700h285zM210 360h121q53 0 84 29t31 78q0 50 -31 79t-84 29h-121v-215z" />
    <glyph glyph-name="Q" unicode="Q" horiz-adv-x="764" 
d="M752 127v-127h-72q-42 0 -65.5 11t-43.5 36q-83 -53 -192 -53q-101 0 -180 46t-123 127.5t-44 182.5t44 182.5t123 127.5t180 46t180 -46t123 -127.5t44 -182.5q0 -125 -66 -218q10 -5 23 -5h69zM209 232q24 -52 68 -81.5t102 -29.5q60 0 107 33l-10 12q-12 16 -23 23.5
t-27 7.5h-65v127h76q40 0 61 -12t42 -39l16 -21q16 44 16 98q0 66 -24 118t-68 81.5t-101 29.5q-58 0 -102 -29.5t-68 -81.5t-24 -118t24 -118z" />
    <glyph glyph-name="R" unicode="R" horiz-adv-x="642" 
d="M345 700q76 0 134.5 -28.5t90.5 -81.5t32 -123q0 -67 -32 -118.5t-88 -78.5l138 -270h-166l-117 235h-127v-235h-150v700h285zM210 360h123q53 0 84.5 29t31.5 78q0 50 -31.5 79t-84.5 29h-123v-215z" />
    <glyph glyph-name="S" unicode="S" horiz-adv-x="625" 
d="M179 228q4 -52 42.5 -83.5t102.5 -31.5q53 0 86.5 22.5t33.5 62.5q0 28 -18.5 44.5t-52 26t-103.5 23.5q-69 13 -116 33.5t-76.5 61t-29.5 107.5q0 61 33.5 109t93 75.5t134.5 27.5q77 0 138.5 -28.5t97 -78.5t36.5 -113h-147q-5 45 -38 72.5t-87 27.5q-50 0 -80 -21
t-30 -60q0 -28 18 -43.5t51 -25t102 -22.5q70 -13 118 -32.5t77.5 -59t29.5 -105.5q0 -64 -35 -114.5t-97.5 -79.5t-140.5 -29q-84 0 -149.5 30.5t-102.5 84.5t-38 121z" />
    <glyph glyph-name="T" unicode="T" horiz-adv-x="598" 
d="M22 700h554v-129h-202v-571h-150v571h-202v129z" />
    <glyph glyph-name="U" unicode="U" horiz-adv-x="685" 
d="M205 700v-406q0 -85 33 -128t104 -43t104.5 43t33.5 128v406h150v-398q0 -150 -73.5 -229t-214.5 -79t-214 79t-73 229v398h150z" />
    <glyph glyph-name="V" unicode="V" horiz-adv-x="654" 
d="M0 700h159l168 -518l172 518h155l-237 -700h-179z" />
    <glyph glyph-name="W" unicode="W" horiz-adv-x="991" 
d="M9 700l155 1l129 -512l137 511h135l133 -511l132 511h152l-194 -700h-173l-121 465l-118 -465h-173z" />
    <glyph glyph-name="X" unicode="X" horiz-adv-x="677" 
d="M244 357l-218 343h182l138 -220l141 220h164l-218 -343l229 -357h-183l-149 235l-152 -235h-163z" />
    <glyph glyph-name="Y" unicode="Y" horiz-adv-x="664" 
d="M0 700h175l157 -287l165 287h167l-257 -440v-260h-150v260z" />
    <glyph glyph-name="Z" unicode="Z" horiz-adv-x="628" 
d="M36 700h556v-99l-359 -473h368v-128h-574v99l359 473h-350v128z" />
    <glyph glyph-name="bracketleft" unicode="[" horiz-adv-x="329" 
d="M51 700h267v-123h-135v-654h135v-123h-267v900z" />
    <glyph glyph-name="backslash" unicode="\" horiz-adv-x="339" 
d="M382 -200h-132l-294 900h133z" />
    <glyph glyph-name="bracketright" unicode="]" horiz-adv-x="329" 
d="M278 -200h-267v123h135v654h-135v123h267v-900z" />
    <glyph glyph-name="asciicircum" unicode="^" horiz-adv-x="526" 
d="M32 388l176 312h110l177 -312h-129l-106 188l-106 -188h-122z" />
    <glyph glyph-name="underscore" unicode="_" horiz-adv-x="504" 
d="M50 -136v130h404v-130h-404z" />
    <glyph glyph-name="grave" unicode="`" horiz-adv-x="400" 
d="M19 700h161l70 -144h-106z" />
    <glyph glyph-name="a" unicode="a" horiz-adv-x="561" 
d="M555 119v-119h-72q-97 0 -95 84q-28 -44 -69 -67t-99 -23q-86 0 -138.5 39.5t-52.5 111.5q0 82 60.5 126.5t175.5 44.5h102v25q0 35 -26 55.5t-70 20.5q-39 0 -64 -17t-30 -46h-136q7 79 70 122.5t167 43.5q109 0 168.5 -48t59.5 -139v-181q0 -19 8 -26t25 -7h16z
M367 222h-103q-44 0 -68.5 -17.5t-24.5 -49.5q0 -27 20.5 -43t55.5 -16q55 0 87 31.5t33 84.5v10z" />
    <glyph glyph-name="b" unicode="b" horiz-adv-x="612" 
d="M468 488.5q54 -31.5 84.5 -91t30.5 -139.5q0 -78 -30.5 -138t-84.5 -93t-122 -33q-54 0 -94 20.5t-66 55.5l-14 -70h-123v700h141v-251q59 71 155 71q69 0 123 -31.5zM405 150q35 41 35 107t-35 107t-92 41t-91 -40.5t-34 -106.5q0 -67 34 -108t91 -41t92 41z" />
    <glyph glyph-name="c" unicode="c" horiz-adv-x="570" 
d="M463.5 47.5q-65.5 -53.5 -169.5 -53.5q-80 0 -140 32.5t-92.5 92.5t-32.5 138q0 79 32.5 138.5t93 92t140.5 32.5q103 0 168 -52.5t80 -145.5h-146q-9 38 -36 60.5t-67 22.5q-55 0 -88 -41t-33 -107t33 -107t88 -41q41 0 68.5 23t35.5 63h145q-14 -94 -79.5 -147.5z" />
    <glyph glyph-name="d" unicode="d" horiz-adv-x="612" 
d="M563 700v-700h-123l-14 71q-59 -77 -160 -77q-68 0 -122 32.5t-84.5 92.5t-30.5 139q0 78 30.5 137.5t85 92t122.5 32.5q100 0 155 -70v250h141zM390 149.5q34 40.5 34 106.5q0 67 -34 108t-91 41t-91.5 -41t-34.5 -107t34.5 -107t91.5 -41t91 40.5z" />
    <glyph glyph-name="e" unicode="e" horiz-adv-x="581" 
d="M61.5 395.5q32.5 59.5 91 92t135.5 32.5q78 0 137.5 -30.5t93 -86t34.5 -130.5q0 -27 -4 -48h-373v-4q5 -56 36 -88t85 -32q43 0 71.5 18.5t37.5 54.5h139q-8 -51 -39 -92t-82 -64.5t-117 -23.5q-86 0 -148.5 32t-96 91.5t-33.5 138.5q0 80 32.5 139.5zM412 317
q-7 47 -38.5 72.5t-79.5 25.5q-46 0 -77.5 -26.5t-37.5 -71.5h233z" />
    <glyph glyph-name="f" unicode="f" horiz-adv-x="355" 
d="M82 514v45q0 68 39 104.5t116 36.5h115v-120h-87q-22 0 -32 -10t-10 -32v-24h129v-119h-129v-395h-141v395h-85v119h85z" />
    <glyph glyph-name="g" unicode="g" horiz-adv-x="612" 
d="M563 514v-499q0 -101 -67 -161t-208 -60q-109 0 -176 48t-72 136h142q10 -37 39.5 -57t77.5 -20q60 0 93 30t33 89v54q-56 -71 -159 -71q-68 0 -122 32t-84.5 90.5t-30.5 136.5q0 77 30.5 136t85 91t122.5 32q101 0 160 -78l12 71h124zM390 156q34 40 34 104
q0 65 -34 106t-91 41t-91.5 -40.5t-34.5 -105.5t34.5 -105t91.5 -40t91 40z" />
    <glyph glyph-name="h" unicode="h" horiz-adv-x="590" 
d="M491.5 464q58.5 -56 58.5 -185v-279h-141v273q0 64 -26 97.5t-78 33.5q-54 0 -84.5 -37t-30.5 -103v-264h-141v700h141v-249q57 69 152 69q91 0 149.5 -56z" />
    <glyph glyph-name="i" unicode="i" horiz-adv-x="239" 
d="M178 705.5q23 -22.5 23 -56.5t-23 -57t-58 -23t-58.5 23t-23.5 57t23.5 56.5t58.5 22.5t58 -22.5zM49 514h141v-514h-141v514z" />
    <glyph glyph-name="j" unicode="j" horiz-adv-x="244" 
d="M182.5 705.5q23.5 -22.5 23.5 -56.5t-23.5 -57t-58.5 -23t-58 23t-23 57t23 56.5t58 22.5t58.5 -22.5zM3 -81q26 0 38.5 13.5t12.5 43.5v538h141v-558q0 -73 -38 -114.5t-110 -41.5h-93v119h49z" />
    <glyph glyph-name="k" unicode="k" horiz-adv-x="562" 
d="M49 700h141v-405l202 219h158l-183 -201l193 -313h-163l-130 208l-77 -83v-125h-141v700z" />
    <glyph glyph-name="l" unicode="l" horiz-adv-x="239" 
d="M49 700h141v-700h-141v700z" />
    <glyph glyph-name="m" unicode="m" horiz-adv-x="894" 
d="M802 465q52 -55 52 -183v-283h-141v288q0 117 -89 117q-46 0 -74 -32.5t-28 -90.5v-282h-141v288q0 117 -90 117q-46 0 -73.5 -33.5t-27.5 -90.5v-281h-141v515h123l13 -64q26 33 62 51t90 19q110 0 153 -87q28 42 73.5 64.5t103.5 22.5q83 0 135 -55z" />
    <glyph glyph-name="n" unicode="n" horiz-adv-x="590" 
d="M492 464q58 -56 58 -185v-279h-141v271q0 133 -104 133q-55 0 -85 -37t-30 -104v-263h-141v514h123l13 -64q27 33 65 51.5t94 18.5q90 0 148 -56z" />
    <glyph glyph-name="o" unicode="o" 
d="M157.5 26.5q-61.5 32.5 -95 92.5t-33.5 138t33.5 138t95 92.5t142.5 32.5t142.5 -32.5t95 -92.5t33.5 -138q0 -79 -33.5 -138.5t-95 -92t-142.5 -32.5t-142.5 32.5zM393.5 150q34.5 41 34.5 107t-34.5 107t-93.5 41q-58 0 -92.5 -41t-34.5 -107t34.5 -107t92.5 -41
q59 0 93.5 41z" />
    <glyph glyph-name="p" unicode="p" horiz-adv-x="612" 
d="M468.5 487.5q53.5 -32.5 84 -92.5t30.5 -139t-30.5 -138t-84.5 -91.5t-123 -32.5q-99 0 -155 71v-265h-141v714h123l14 -71q26 35 66.5 56t93.5 21q69 0 122.5 -32.5zM405 150.5q35 41.5 35 107.5t-35 106.5t-92 40.5t-91 -40.5t-34 -106.5q0 -67 34 -108t91 -41t92 41.5
z" />
    <glyph glyph-name="q" unicode="q" horiz-adv-x="612" 
d="M563 514v-714h-141v266q-58 -72 -155 -72q-69 0 -123 31.5t-84.5 91t-30.5 139.5q0 78 30.5 138t84.5 93t122 33q53 0 93.5 -20t66.5 -55l14 69h123zM390 150q34 41 34 107q0 67 -34 107.5t-91 40.5t-91.5 -40.5t-34.5 -106.5q0 -67 34.5 -108t91.5 -41t91 41z" />
    <glyph glyph-name="r" unicode="r" horiz-adv-x="376" 
d="M362 514v-128h-56q-60 0 -88 -36t-28 -98v-252h-141v514h128l13 -77q23 38 57 57.5t91 19.5h24z" />
    <glyph glyph-name="s" unicode="s" horiz-adv-x="540" 
d="M164 171q3 -34 33 -55t77 -21q45 0 71 14.5t26 41.5q0 20 -12 30t-34 14.5t-72 10.5q-68 9 -113 23t-72 44t-27 80t27.5 88.5t77.5 59.5t115 21q105 -1 169.5 -45t69.5 -122h-134q-3 29 -30.5 47.5t-70.5 18.5q-40 0 -64.5 -15t-24.5 -40q0 -18 13 -27t34 -13t70 -9
q104 -12 159.5 -44.5t55.5 -111.5q0 -50 -29.5 -88t-82 -58.5t-121.5 -20.5q-107 0 -174 47.5t-71 129.5h134z" />
    <glyph glyph-name="t" unicode="t" horiz-adv-x="356" 
d="M82 395h-85v119h85v144h141v-144h117v-119h-117v-225q0 -27 11.5 -39t38.5 -12h73v-119h-117q-147 0 -147 147v248z" />
    <glyph glyph-name="u" unicode="u" horiz-adv-x="582" 
d="M533 514v-514h-125l-13 62q-27 -32 -63 -50t-88 -18q-90 0 -147 55.5t-57 185.5v279h141v-262q0 -70 24.5 -105.5t75.5 -35.5q53 0 82 39.5t29 110.5v253h141z" />
    <glyph glyph-name="v" unicode="v" horiz-adv-x="542" 
d="M-1 514h151l124 -370l122 370h148l-185 -514h-175z" />
    <glyph glyph-name="w" unicode="w" horiz-adv-x="819" 
d="M0 514h149l103 -362l97 362h127l94 -363l105 363h144l-169 -514h-150l-90 310l-92 -310h-150z" />
    <glyph glyph-name="x" unicode="x" horiz-adv-x="552" 
d="M194 262l-182 252h161l107 -152l109 152h151l-181 -252l191 -262h-161l-118 161l-117 -161h-151z" />
    <glyph glyph-name="y" unicode="y" horiz-adv-x="546" 
d="M149 514l125 -369l122 369h151l-228 -587q-18 -47 -34 -73.5t-40.5 -40t-63.5 -13.5h-137v119h78q27 0 39 9t23 35l13 34l-198 517h150z" />
    <glyph glyph-name="z" unicode="z" horiz-adv-x="503" 
d="M34 514h435v-96l-257 -299h269v-119h-459v96l257 299h-245v119z" />
    <glyph glyph-name="braceleft" unicode="{" horiz-adv-x="343" 
d="M243 559q-19 -18 -19 -50q0 -8 4 -28l19 -82q4 -16 4 -34q0 -41 -26.5 -71.5t-74.5 -43.5q48 -8 75 -37t27 -71q0 -16 -5 -41l-19 -82q-4 -22 -4 -29q0 -32 19 -49.5t54 -17.5l35 -1v-123h-29q-99 0 -156 43.5t-57 118.5q0 22 4 41l17 90q3 10 3 30q0 65 -91 67v122
q45 1 68.5 17.5t23.5 49.5q0 15 -4 30l-17 90q-4 19 -4 41q0 75 57 118.5t156 43.5h29v-123l-35 -1q-35 0 -54 -18z" />
    <glyph glyph-name="bar" unicode="|" horiz-adv-x="260" 
d="M60 700h141v-900h-141v900z" />
    <glyph glyph-name="braceright" unicode="}" horiz-adv-x="343" 
d="M229 122q0 -20 3 -30l17 -90q4 -19 4 -41q0 -75 -57 -118.5t-156 -43.5h-29v123l35 1q35 0 54 17.5t19 49.5q0 7 -4 29l-19 82q-5 25 -5 41q0 42 27 71t75 37q-48 13 -74.5 43.5t-26.5 71.5q0 18 4 34l19 82q4 20 4 28q0 32 -19 50t-54 18l-35 1v123h29q99 0 156 -43.5
t57 -118.5q0 -22 -4 -41l-17 -90q-4 -15 -4 -30q0 -33 23.5 -49.5t68.5 -17.5v-122q-91 -2 -91 -67z" />
    <glyph glyph-name="asciitilde" unicode="~" horiz-adv-x="515" 
d="M39 180q0 88 32.5 132.5t95.5 44.5q34 0 56 -8.5t48 -24.5q15 -10 25.5 -15t22.5 -5q45 0 45 53h112q0 -88 -32.5 -132.5t-95.5 -44.5q-35 0 -58 9t-46 25q-3 2 -13 7.5t-18.5 8.5t-16.5 3q-24 0 -34.5 -13.5t-10.5 -39.5h-112z" />
    <glyph glyph-name="exclamdown" unicode="&#xa1;" horiz-adv-x="289" 
d="M211 682.5q24 -23.5 24 -59.5q0 -37 -24 -60.5t-61 -23.5q-36 0 -60 23.5t-24 60.5q0 36 24 59.5t60 23.5q37 0 61 -23.5zM98 483h107l21 -483h-151z" />
    <glyph glyph-name="cent" unicode="&#xa2;" horiz-adv-x="570" 
d="M362.5 224q27.5 23 35.5 63h145q-12 -78 -59 -128t-123 -66v-93h-124v91q-97 17 -152.5 85.5t-55.5 172.5t55.5 172.5t152.5 85.5v93h124v-94q75 -16 122 -66t60 -126h-146q-9 38 -36 60.5t-67 22.5q-55 0 -88 -41t-33 -107t33 -107t88 -41q41 0 68.5 23z" />
    <glyph glyph-name="sterling" unicode="&#xa3;" horiz-adv-x="622" 
d="M100 369q-2 7 -8 30.5t-9 43t-3 38.5q0 66 32.5 117t89.5 79t127 28q119 0 189.5 -65.5t76.5 -178.5h-143q-4 57 -34 89.5t-84 32.5q-50 0 -80.5 -30.5t-30.5 -80.5q0 -18 4 -37.5t9.5 -39t7.5 -26.5h191v-102h-178q3 -28 -13 -69.5t-40 -68.5l388 -2v-127h-543v121
q28 31 44.5 69t20.5 77h-86v102h72z" />
    <glyph glyph-name="currency" unicode="&#xa4;" horiz-adv-x="664" 
d="M208 573q57 33 124 33t124 -33l70 70l99 -99l-68 -68q37 -59 37 -133q0 -66 -32 -124l63 -63l-99 -99l-61 62q-60 -38 -133 -38t-133 38l-61 -62l-99 99l63 63q-32 58 -32 124q0 74 37 133l-68 68l99 99zM231 241.5q40 -40.5 101 -40.5t101 40.5t40 101.5q0 62 -40 102.5
t-101 40.5t-101 -40.5t-40 -102.5q0 -61 40 -101.5z" />
    <glyph glyph-name="yen" unicode="&#xa5;" horiz-adv-x="700" 
d="M664 700l-201 -353h123v-101h-173v-60h173v-101h-173v-85h-150v85h-173v101h173v60h-173v101h122l-208 353h177l155 -287l161 287h167z" />
    <glyph glyph-name="brokenbar" unicode="&#xa6;" horiz-adv-x="260" 
d="M60 700h141v-411h-141v411zM60 206h141v-406h-141v406z" />
    <glyph glyph-name="section" unicode="&#xa7;" horiz-adv-x="633" 
d="M466 176q31 -20 47.5 -47.5t16.5 -67.5q0 -76 -58.5 -121.5t-156.5 -45.5q-94 0 -154 43.5t-64 118.5h137q2 -29 24 -46t57 -17t55.5 14.5t20.5 40.5q0 31 -21 46t-71 29q-87 25 -132 43t-76.5 49t-31.5 80q0 91 103 132q-60 39 -60 112q0 76 59 121.5t157 45.5
q94 0 153 -43.5t63 -118.5h-136q-2 29 -23.5 46t-56.5 17q-36 0 -57 -15t-21 -42q1 -29 22 -44t71 -29q87 -25 132.5 -43t77 -49t31.5 -80q0 -88 -108 -129zM344 224l20 -6q63 22 63 75q0 29 -24.5 44t-88.5 32q-30 8 -45 13q-64 -23 -64 -74q0 -30 24.5 -45t88.5 -32z" />
    <glyph glyph-name="dieresis" unicode="&#xa8;" horiz-adv-x="400" 
d="M41 691q22 21 54 21t53.5 -21t21.5 -52t-21.5 -52t-53.5 -21t-54 21t-22 52t22 52zM251.5 691q21.5 21 53.5 21t54 -21t22 -52t-22 -52t-54 -21t-53.5 21t-21.5 52t21.5 52z" />
    <glyph glyph-name="copyright" unicode="&#xa9;" horiz-adv-x="797" 
d="M79 531.5q48 81.5 132 128t187 46.5t187 -46.5t132 -128t48 -181.5t-48 -181.5t-132 -128t-187 -46.5t-187 46.5t-132 128t-48 181.5t48 181.5zM651 498.5q-38 66.5 -104.5 104.5t-148.5 38t-148.5 -38t-104 -104.5t-37.5 -148.5t37.5 -148.5t104 -104.5t148.5 -38
t148.5 38t104.5 104.5t38 148.5t-38 148.5zM523 185q-49 -40 -124 -40q-60 0 -105 28t-68.5 75t-23.5 103t23.5 103t68.5 75t105 28q71 0 122.5 -40t60.5 -113h-89q-8 32 -33.5 52.5t-59.5 20.5q-51 0 -78.5 -35.5t-27.5 -90.5q0 -54 28 -90t78 -36q36 0 60.5 19t33.5 53h88
q-10 -72 -59 -112z" />
    <glyph glyph-name="ordfeminine" unicode="&#xaa;" horiz-adv-x="424" 
d="M86.5 548q39.5 27 113.5 27h59v15q0 21 -15 33.5t-42 12.5q-22 0 -36 -11t-16 -28h-96q4 52 45 80.5t107 28.5q71 0 109.5 -31t38.5 -90v-107q0 -12 5 -17t17 -5h9v-72h-46q-32 0 -47.5 13.5t-15.5 36.5v5q-31 -59 -107 -59q-54 0 -88 23.5t-34 67.5q0 50 39.5 77z
M259 518h-62q-25 0 -39 -11t-14 -29q0 -16 12 -24.5t33 -8.5q32 0 51 19.5t19 50.5v3zM45 320h340v-79h-340v79z" />
    <glyph glyph-name="guillemotleft" unicode="&#xab;" horiz-adv-x="608" 
d="M324 514l-150 -257l150 -257h-142l-152 257l152 257h142zM575 513l-150 -257l150 -257h-142l-152 257l152 257h142z" />
    <glyph glyph-name="logicalnot" unicode="&#xac;" horiz-adv-x="515" 
d="M42 362h395v-279h-125v160h-270v119z" />
    <glyph glyph-name="registered" unicode="&#xae;" horiz-adv-x="523" 
d="M69 599.5q30 49.5 81 78t111 28.5q61 0 112 -28.5t81 -78t30 -108.5q0 -60 -30 -109.5t-81 -78t-112 -28.5q-60 0 -111 28.5t-81 78t-30 108.5q0 60 30 109.5zM406 574.5q-22 38.5 -60.5 60.5t-84.5 22t-83.5 -22t-59.5 -60.5t-22 -85.5q0 -46 22 -83.5t59.5 -59.5
t83.5 -22t84.5 22t60.5 60t22 84t-22 84.5zM269 605q41 0 66 -21t25 -56q0 -22 -11 -39t-32 -27l46 -85h-63l-39 72h-27v-72h-57v228h92zM234 497h32q16 0 25.5 8.5t9.5 22.5q0 15 -9 23t-26 8h-32v-62z" />
    <glyph glyph-name="macron" unicode="&#xaf;" horiz-adv-x="400" 
d="M45 589v100h311v-100h-311z" />
    <glyph glyph-name="degree" unicode="&#xb0;" horiz-adv-x="436" 
d="M62.5 623q23.5 39 64.5 61t91 22q49 0 90 -22t65 -61t24 -86q0 -48 -24 -86.5t-65 -61t-90 -22.5q-50 0 -91 22.5t-64.5 61t-23.5 86.5q0 47 23.5 86zM276 595q-23 23 -58 23t-58 -23t-23 -58t23 -58.5t58 -23.5t58 23.5t23 58.5t-23 58z" />
    <glyph glyph-name="plusminus" unicode="&#xb1;" horiz-adv-x="515" 
d="M473 257h-152v-138h152v-119h-431v119h151v138h-151v119h151v160h128v-160h152v-119z" />
    <glyph glyph-name="uni00B2" unicode="&#xb2;" horiz-adv-x="327" 
d="M16 668q0 62 41 100t102 38q66 0 106.5 -34t40.5 -89q0 -37 -18 -61.5t-49 -46.5l-74 -53h145v-86h-290v81l146 101q19 14 30 29t11 34q0 18 -13 29.5t-34 11.5q-23 0 -36.5 -14.5t-13.5 -43.5v-3h-94v7z" />
    <glyph glyph-name="uni00B3" unicode="&#xb3;" horiz-adv-x="336" 
d="M65 774.5q38 32.5 105 32.5q65 0 102 -28t37 -73q0 -30 -17.5 -50t-43.5 -28q33 -7 52 -28.5t19 -54.5q0 -53 -41 -83.5t-113 -30.5q-73 0 -111.5 33.5t-39.5 96.5h96q3 -48 54 -48q23 0 37.5 10.5t14.5 28.5t-14.5 28.5t-41.5 10.5h-20v63h22q22 0 36 9.5t14 25.5
q0 17 -12 26.5t-32 9.5q-22 0 -35 -11t-14 -30h-94q2 58 40 90.5z" />
    <glyph glyph-name="acute" unicode="&#xb4;" horiz-adv-x="400" 
d="M151 559l73 141h161l-131 -141h-103z" />
    <glyph glyph-name="uni00B5" unicode="&#xb5;" horiz-adv-x="593" 
d="M190 -200h-141v714h141v-259q0 -144 104 -144q51 0 80 40.5t29 112.5v250h141v-514h-126l-11 67q-26 -35 -59.5 -54t-80.5 -19q-23 0 -44.5 8t-32.5 18v-220z" />
    <glyph glyph-name="paragraph" unicode="&#xb6;" horiz-adv-x="747" 
d="M356 221h-75q-77 0 -136 29.5t-91 84t-32 125.5q0 72 32 126.5t91 84t136 29.5h209v-700h-134v221zM554 700h134v-700h-134v700z" />
    <glyph glyph-name="periodcentered" unicode="&#xb7;" horiz-adv-x="248" 
d="M63 358.5q24 23.5 61 23.5q36 0 60.5 -24t24.5 -60t-24.5 -59.5t-60.5 -23.5q-37 0 -61 23.5t-24 59.5q0 37 24 60.5z" />
    <glyph glyph-name="cedilla" unicode="&#xb8;" horiz-adv-x="400" 
d="M244 32l-16 -62h17q42 0 66.5 -20.5t24.5 -56.5q0 -43 -29.5 -68t-79.5 -25h-119v69h92q29 0 29 25q0 10 -8 16t-21 6h-59l29 116h74z" />
    <glyph glyph-name="uni00B9" unicode="&#xb9;" horiz-adv-x="203" 
d="M81 436v216q-7 -3 -19 -3h-62v85h57q12 0 19 10.5t7 25.5v30h92v-364h-94z" />
    <glyph glyph-name="ordmasculine" unicode="&#xba;" horiz-adv-x="425" 
d="M335 424.5q-46 -44.5 -123 -44.5q-76 0 -122 44.5t-46 118.5t46 118.5t122 44.5q77 0 123 -44.5t46 -118.5t-46 -118.5zM161.5 480q18.5 -24 50.5 -24t51.5 24t19.5 63t-19.5 63t-51.5 24t-50.5 -24t-18.5 -63t18.5 -63zM45 320h336v-79h-336v79z" />
    <glyph glyph-name="guillemotright" unicode="&#xbb;" horiz-adv-x="608" 
d="M284 514h142l152 -257l-152 -257h-142l150 257zM33 513h142l152 -257l-152 -257h-142l150 257z" />
    <glyph glyph-name="onequarter" unicode="&#xbc;" horiz-adv-x="676" 
d="M81 336v216q-8 -3 -19 -3h-62v85h57q12 0 19 10.5t7 25.5v30h92v-364h-94zM23 0l443 700h113l-443 -700h-113zM514 364h118v-201h54v-83h-54v-80h-93v80h-172v83zM539 273l-81 -110h81v110z" />
    <glyph glyph-name="onehalf" unicode="&#xbd;" horiz-adv-x="707" 
d="M81 336v216q-8 -3 -19 -3h-62v85h57q12 0 19 10.5t7 25.5v30h92v-364h-94zM23 0l443 700h113l-443 -700h-113zM403 232q0 62 41 100t102 38q66 0 106.5 -34t40.5 -89q0 -37 -18 -61.5t-49 -46.5l-74 -53h145v-86h-290v81l146 101q19 14 30 29t11 34q0 18 -13 29.5
t-34 11.5q-23 0 -36.5 -14.5t-13.5 -43.5v-3h-94v7z" />
    <glyph glyph-name="threequarters" unicode="&#xbe;" horiz-adv-x="809" 
d="M65 674.5q38 32.5 105 32.5q65 0 102 -28t37 -73q0 -30 -17.5 -50t-43.5 -28q33 -7 52 -28.5t19 -54.5q0 -53 -41 -83.5t-113 -30.5q-73 0 -111.5 33.5t-39.5 96.5h96q3 -48 54 -48q23 0 37.5 10.5t14.5 28.5t-14.5 28.5t-41.5 10.5h-20v63h22q22 0 36 9.5t14 25.5
q0 17 -12 26.5t-32 9.5q-22 0 -35 -11t-14 -30h-94q2 58 40 90.5zM156 0l443 700h113l-443 -700h-113zM647 364h118v-201h54v-83h-54v-80h-93v80h-172v83zM672 273l-81 -110h81v110z" />
    <glyph glyph-name="questiondown" unicode="&#xbf;" horiz-adv-x="529" 
d="M332.5 567.5q-23.5 -22.5 -59.5 -22.5t-59.5 22.5t-23.5 57.5t23.5 58t59.5 23q35 0 59 -23t24 -58t-23.5 -57.5zM481.5 114.5q-29.5 -55.5 -85.5 -88t-133 -32.5q-73 0 -126.5 24t-82.5 67t-29 98q0 65 26.5 102.5t77.5 72.5q45 30 63.5 52t18.5 52v13h132v-28
q0 -57 -25.5 -89t-80.5 -64q-35 -22 -51.5 -45.5t-16.5 -52.5q0 -36 25.5 -58.5t67.5 -22.5q48 0 76.5 33.5t28.5 88.5h144q0 -67 -29.5 -122.5z" />
    <glyph glyph-name="Agrave" unicode="&#xc0;" horiz-adv-x="698" 
d="M4 0l256 700h180l254 -700h-161l-54 153h-266l-54 -153h-155zM253 274h185l-93 266zM169 896h161l70 -144h-106z" />
    <glyph glyph-name="Aacute" unicode="&#xc1;" horiz-adv-x="698" 
d="M4 0l256 700h180l254 -700h-161l-54 153h-266l-54 -153h-155zM253 274h185l-93 266zM301 755l73 141h161l-131 -141h-103z" />
    <glyph glyph-name="Acircumflex" unicode="&#xc2;" horiz-adv-x="698" 
d="M4 0l256 700h180l254 -700h-161l-54 153h-266l-54 -153h-155zM253 274h185l-93 266zM350 813l-62 -59h-129l128 142h126l128 -142h-130z" />
    <glyph glyph-name="Atilde" unicode="&#xc3;" horiz-adv-x="698" 
d="M4 0l256 700h180l254 -700h-161l-54 153h-266l-54 -153h-155zM253 274h185l-93 266zM284.5 797.5q-9.5 -11.5 -9.5 -27.5h-82v20q0 46 26.5 76.5t68.5 30.5q21 0 35 -6.5t30 -18.5q11 -9 19.5 -13.5t19.5 -4.5q15 0 24 11t9 28h82v-21q0 -46 -27 -76.5t-68 -30.5
q-22 0 -36.5 7t-30.5 20q-12 9 -19.5 13t-16.5 4q-15 0 -24.5 -11.5z" />
    <glyph glyph-name="Adieresis" unicode="&#xc4;" horiz-adv-x="698" 
d="M4 0l256 700h180l254 -700h-161l-54 153h-266l-54 -153h-155zM253 274h185l-93 266zM191 887q22 21 54 21t53.5 -21t21.5 -52t-21.5 -52t-53.5 -21t-54 21t-22 52t22 52zM401.5 887q21.5 21 53.5 21t54 -21t22 -52t-22 -52t-54 -21t-53.5 21t-21.5 52t21.5 52z" />
    <glyph glyph-name="Aring" unicode="&#xc5;" horiz-adv-x="698" 
d="M694 0h-161l-54 153h-266l-54 -153h-155l252 688q-38 35 -38 86q0 50 37.5 85.5t92.5 35.5t92.5 -35.5t37.5 -85.5t-35 -83zM306.5 815.5q-16.5 -16.5 -16.5 -41.5t16.5 -42t41.5 -17t41.5 17t16.5 42t-16.5 41.5t-41.5 16.5t-41.5 -16.5zM253 274h185l-93 266z" />
    <glyph glyph-name="AE" unicode="&#xc6;" horiz-adv-x="996" 
d="M634 129h331v-129h-481v148h-246l-89 -148h-155l410 700h550v-129h-320v-157h260v-123h-260v-162zM307 269h177v304z" />
    <glyph glyph-name="Ccedilla" unicode="&#xc7;" horiz-adv-x="702" 
d="M470.5 155.5q41.5 34.5 54.5 94.5h150q-12 -106 -83 -175t-181 -79l-7 -26h17q42 0 66.5 -20.5t24.5 -56.5q0 -43 -29.5 -68t-79.5 -25h-119v69h92q29 0 29 25q0 10 -8 16t-21 6h-59l20 80q-94 8 -163 53.5t-105.5 123t-36.5 177.5q0 107 41.5 187.5t119 124.5t182.5 44
q82 0 147 -32t105 -90t48 -134h-150q-13 60 -54.5 94.5t-103.5 34.5q-84 0 -133 -63t-49 -166q0 -102 49 -165.5t133 -63.5q62 0 103.5 34.5z" />
    <glyph glyph-name="Egrave" unicode="&#xc8;" horiz-adv-x="571" 
d="M60 700h470v-129h-320v-157h260v-123h-260v-162h331v-129h-481v700zM118 896h161l70 -144h-106z" />
    <glyph glyph-name="Eacute" unicode="&#xc9;" horiz-adv-x="571" 
d="M60 700h470v-129h-320v-157h260v-123h-260v-162h331v-129h-481v700zM250 755l73 141h161l-131 -141h-103z" />
    <glyph glyph-name="Ecircumflex" unicode="&#xca;" horiz-adv-x="571" 
d="M60 700h470v-129h-320v-157h260v-123h-260v-162h331v-129h-481v700zM299 813l-62 -59h-129l128 142h126l128 -142h-130z" />
    <glyph glyph-name="Edieresis" unicode="&#xcb;" horiz-adv-x="571" 
d="M60 700h470v-129h-320v-157h260v-123h-260v-162h331v-129h-481v700zM140 887q22 21 54 21t53.5 -21t21.5 -52t-21.5 -52t-53.5 -21t-54 21t-22 52t22 52zM350.5 887q21.5 21 53.5 21t54 -21t22 -52t-22 -52t-54 -21t-53.5 21t-21.5 52t21.5 52z" />
    <glyph glyph-name="Igrave" unicode="&#xcc;" horiz-adv-x="269" 
d="M60 700h150v-700h-150v700zM-47 896h161l70 -144h-106z" />
    <glyph glyph-name="Iacute" unicode="&#xcd;" horiz-adv-x="269" 
d="M60 700h150v-700h-150v700zM85 755l73 141h161l-131 -141h-103z" />
    <glyph glyph-name="Icircumflex" unicode="&#xce;" horiz-adv-x="269" 
d="M60 700h150v-700h-150v700zM134 813l-62 -59h-129l128 142h126l128 -142h-130z" />
    <glyph glyph-name="Idieresis" unicode="&#xcf;" horiz-adv-x="269" 
d="M60 700h150v-700h-150v700zM-25 887q22 21 54 21t53.5 -21t21.5 -52t-21.5 -52t-53.5 -21t-54 21t-22 52t22 52zM185.5 887q21.5 21 53.5 21t54 -21t22 -52t-22 -52t-54 -21t-53.5 21t-21.5 52t21.5 52z" />
    <glyph glyph-name="Eth" unicode="&#xd0;" horiz-adv-x="699" 
d="M504.5 655.5q80.5 -44.5 124 -124t43.5 -181.5t-43.5 -181.5t-124 -124t-185.5 -44.5h-243v303h-79v104h79v293h243q105 0 185.5 -44.5zM466.5 186.5q52.5 61.5 52.5 163.5t-52.5 163.5t-147.5 61.5h-93v-168h112v-104h-112v-178h93q95 0 147.5 61.5z" />
    <glyph glyph-name="Ntilde" unicode="&#xd1;" horiz-adv-x="700" 
d="M60 0v700h136l297 -441v441h148v-700h-137l-297 441v-441h-147zM273.5 797.5q-9.5 -11.5 -9.5 -27.5h-82v20q0 46 26.5 76.5t68.5 30.5q21 0 35 -6.5t30 -18.5q11 -9 19.5 -13.5t19.5 -4.5q15 0 24 11t9 28h82v-21q0 -46 -27 -76.5t-68 -30.5q-22 0 -36.5 7t-30.5 20
q-12 9 -19.5 13t-16.5 4q-15 0 -24.5 -11.5z" />
    <glyph glyph-name="Ograve" unicode="&#xd2;" horiz-adv-x="757" 
d="M682 167.5q-44 -81.5 -123 -127.5t-180 -46t-180 46t-123 127.5t-44 182.5t44 182.5t123 127.5t180 46t180 -46t123 -127.5t44 -182.5t-44 -182.5zM209 232q24 -52 68 -81.5t102 -29.5q57 0 101 29.5t68 81.5t24 118t-24 118t-68 81.5t-101 29.5q-58 0 -102 -29.5
t-68 -81.5t-24 -118t24 -118zM198 896h161l70 -144h-106z" />
    <glyph glyph-name="Oacute" unicode="&#xd3;" horiz-adv-x="757" 
d="M682 167.5q-44 -81.5 -123 -127.5t-180 -46t-180 46t-123 127.5t-44 182.5t44 182.5t123 127.5t180 46t180 -46t123 -127.5t44 -182.5t-44 -182.5zM209 232q24 -52 68 -81.5t102 -29.5q57 0 101 29.5t68 81.5t24 118t-24 118t-68 81.5t-101 29.5q-58 0 -102 -29.5
t-68 -81.5t-24 -118t24 -118zM330 755l73 141h161l-131 -141h-103z" />
    <glyph glyph-name="Ocircumflex" unicode="&#xd4;" horiz-adv-x="757" 
d="M682 167.5q-44 -81.5 -123 -127.5t-180 -46t-180 46t-123 127.5t-44 182.5t44 182.5t123 127.5t180 46t180 -46t123 -127.5t44 -182.5t-44 -182.5zM209 232q24 -52 68 -81.5t102 -29.5q57 0 101 29.5t68 81.5t24 118t-24 118t-68 81.5t-101 29.5q-58 0 -102 -29.5
t-68 -81.5t-24 -118t24 -118zM379 813l-62 -59h-129l128 142h126l128 -142h-130z" />
    <glyph glyph-name="Otilde" unicode="&#xd5;" horiz-adv-x="757" 
d="M682 167.5q-44 -81.5 -123 -127.5t-180 -46t-180 46t-123 127.5t-44 182.5t44 182.5t123 127.5t180 46t180 -46t123 -127.5t44 -182.5t-44 -182.5zM209 232q24 -52 68 -81.5t102 -29.5q57 0 101 29.5t68 81.5t24 118t-24 118t-68 81.5t-101 29.5q-58 0 -102 -29.5
t-68 -81.5t-24 -118t24 -118zM313.5 797.5q-9.5 -11.5 -9.5 -27.5h-82v20q0 46 26.5 76.5t68.5 30.5q21 0 35 -6.5t30 -18.5q11 -9 19.5 -13.5t19.5 -4.5q15 0 24 11t9 28h82v-21q0 -46 -27 -76.5t-68 -30.5q-22 0 -36.5 7t-30.5 20q-12 9 -19.5 13t-16.5 4
q-15 0 -24.5 -11.5z" />
    <glyph glyph-name="Odieresis" unicode="&#xd6;" horiz-adv-x="757" 
d="M682 167.5q-44 -81.5 -123 -127.5t-180 -46t-180 46t-123 127.5t-44 182.5t44 182.5t123 127.5t180 46t180 -46t123 -127.5t44 -182.5t-44 -182.5zM209 232q24 -52 68 -81.5t102 -29.5q57 0 101 29.5t68 81.5t24 118t-24 118t-68 81.5t-101 29.5q-58 0 -102 -29.5
t-68 -81.5t-24 -118t24 -118zM220 887q22 21 54 21t53.5 -21t21.5 -52t-21.5 -52t-53.5 -21t-54 21t-22 52t22 52zM430.5 887q21.5 21 53.5 21t54 -21t22 -52t-22 -52t-54 -21t-53.5 21t-21.5 52t21.5 52z" />
    <glyph glyph-name="multiply" unicode="&#xd7;" horiz-adv-x="515" 
d="M125 504l136 -136l132 133l84 -84l-133 -132l136 -136l-90 -91l-136 137l-133 -133l-83 83l133 133l-136 135z" />
    <glyph glyph-name="Oslash" unicode="&#xd8;" horiz-adv-x="757" 
d="M660 566q66 -93 66 -216q0 -101 -44 -182.5t-123 -127.5t-180 -46q-120 0 -210 66l-64 -66l-73 73l65 67q-65 94 -65 216q0 101 44 182.5t123 127.5t180 46q121 0 210 -67l65 67l72 -72zM204 243l289 298q-46 38 -114 38q-58 0 -102 -29.5t-68 -81.5t-24 -118
q0 -56 19 -107zM553 456l-288 -297q49 -38 114 -38q57 0 101 29.5t68 81.5t24 118q0 61 -19 106z" />
    <glyph glyph-name="Ugrave" unicode="&#xd9;" horiz-adv-x="685" 
d="M205 700v-406q0 -85 33 -128t104 -43t104.5 43t33.5 128v406h150v-398q0 -150 -73.5 -229t-214.5 -79t-214 79t-73 229v398h150zM162 896h161l70 -144h-106z" />
    <glyph glyph-name="Uacute" unicode="&#xda;" horiz-adv-x="685" 
d="M205 700v-406q0 -85 33 -128t104 -43t104.5 43t33.5 128v406h150v-398q0 -150 -73.5 -229t-214.5 -79t-214 79t-73 229v398h150zM294 755l73 141h161l-131 -141h-103z" />
    <glyph glyph-name="Ucircumflex" unicode="&#xdb;" horiz-adv-x="685" 
d="M205 700v-406q0 -85 33 -128t104 -43t104.5 43t33.5 128v406h150v-398q0 -150 -73.5 -229t-214.5 -79t-214 79t-73 229v398h150zM343 813l-62 -59h-129l128 142h126l128 -142h-130z" />
    <glyph glyph-name="Udieresis" unicode="&#xdc;" horiz-adv-x="685" 
d="M205 700v-406q0 -85 33 -128t104 -43t104.5 43t33.5 128v406h150v-398q0 -150 -73.5 -229t-214.5 -79t-214 79t-73 229v398h150zM184 887q22 21 54 21t53.5 -21t21.5 -52t-21.5 -52t-53.5 -21t-54 21t-22 52t22 52zM394.5 887q21.5 21 53.5 21t54 -21t22 -52t-22 -52
t-54 -21t-53.5 21t-21.5 52t21.5 52z" />
    <glyph glyph-name="Yacute" unicode="&#xdd;" horiz-adv-x="664" 
d="M0 700h175l157 -287l165 287h167l-257 -440v-260h-150v260zM287 755l73 141h161l-131 -141h-103z" />
    <glyph glyph-name="Thorn" unicode="&#xde;" horiz-adv-x="623" 
d="M210 700v-108h120q125 0 197 -62.5t72 -170.5t-72.5 -170t-195.5 -62h-121v-127h-150v700h150zM210 252h116q56 0 88.5 28t32.5 79t-32.5 79.5t-87.5 28.5h-117v-215z" />
    <glyph glyph-name="germandbls" unicode="&#xdf;" horiz-adv-x="623" 
d="M259 11v104q40 -14 86 -14q49 0 80.5 26.5t31.5 71.5q0 49 -37.5 75.5t-100.5 26.5q-9 0 -31 -2v105q62 0 91 28t29 70t-27 66.5t-74 24.5q-48 0 -77 -29.5t-29 -77.5v-486h-141v479q0 112 70 169.5t178 57.5q72 0 127 -23t85.5 -65.5t30.5 -98.5q-1 -53 -27.5 -92.5
t-68.5 -57.5q144 -41 144 -172q0 -63 -30.5 -109t-83 -69.5t-118.5 -24.5q-61 1 -108 17z" />
    <glyph glyph-name="agrave" unicode="&#xe0;" horiz-adv-x="561" 
d="M555 119v-119h-72q-97 0 -95 84q-28 -44 -69 -67t-99 -23q-86 0 -138.5 39.5t-52.5 111.5q0 82 60.5 126.5t175.5 44.5h102v25q0 35 -26 55.5t-70 20.5q-39 0 -64 -17t-30 -46h-136q7 79 70 122.5t167 43.5q109 0 168.5 -48t59.5 -139v-181q0 -19 8 -26t25 -7h16z
M367 222h-103q-44 0 -68.5 -17.5t-24.5 -49.5q0 -27 20.5 -43t55.5 -16q55 0 87 31.5t33 84.5v10zM96 710h161l70 -144h-106z" />
    <glyph glyph-name="aacute" unicode="&#xe1;" horiz-adv-x="561" 
d="M555 119v-119h-72q-97 0 -95 84q-28 -44 -69 -67t-99 -23q-86 0 -138.5 39.5t-52.5 111.5q0 82 60.5 126.5t175.5 44.5h102v25q0 35 -26 55.5t-70 20.5q-39 0 -64 -17t-30 -46h-136q7 79 70 122.5t167 43.5q109 0 168.5 -48t59.5 -139v-181q0 -19 8 -26t25 -7h16z
M367 222h-103q-44 0 -68.5 -17.5t-24.5 -49.5q0 -27 20.5 -43t55.5 -16q55 0 87 31.5t33 84.5v10zM228 569l73 141h161l-131 -141h-103z" />
    <glyph glyph-name="acircumflex" unicode="&#xe2;" horiz-adv-x="561" 
d="M555 119v-119h-72q-97 0 -95 84q-28 -44 -69 -67t-99 -23q-86 0 -138.5 39.5t-52.5 111.5q0 82 60.5 126.5t175.5 44.5h102v25q0 35 -26 55.5t-70 20.5q-39 0 -64 -17t-30 -46h-136q7 79 70 122.5t167 43.5q109 0 168.5 -48t59.5 -139v-181q0 -19 8 -26t25 -7h16z
M367 222h-103q-44 0 -68.5 -17.5t-24.5 -49.5q0 -27 20.5 -43t55.5 -16q55 0 87 31.5t33 84.5v10zM277 627l-62 -59h-129l128 142h126l128 -142h-130z" />
    <glyph glyph-name="atilde" unicode="&#xe3;" horiz-adv-x="561" 
d="M555 119v-119h-72q-97 0 -95 84q-28 -44 -69 -67t-99 -23q-86 0 -138.5 39.5t-52.5 111.5q0 82 60.5 126.5t175.5 44.5h102v25q0 35 -26 55.5t-70 20.5q-39 0 -64 -17t-30 -46h-136q7 79 70 122.5t167 43.5q109 0 168.5 -48t59.5 -139v-181q0 -19 8 -26t25 -7h16z
M367 222h-103q-44 0 -68.5 -17.5t-24.5 -49.5q0 -27 20.5 -43t55.5 -16q55 0 87 31.5t33 84.5v10zM211.5 611.5q-9.5 -11.5 -9.5 -27.5h-82v20q0 46 26.5 76.5t68.5 30.5q21 0 35 -6.5t30 -18.5q11 -9 19.5 -13.5t19.5 -4.5q15 0 24 11t9 28h82v-21q0 -46 -27 -76.5
t-68 -30.5q-22 0 -36.5 7t-30.5 20q-12 9 -19.5 13t-16.5 4q-15 0 -24.5 -11.5z" />
    <glyph glyph-name="adieresis" unicode="&#xe4;" horiz-adv-x="561" 
d="M555 119v-119h-72q-97 0 -95 84q-28 -44 -69 -67t-99 -23q-86 0 -138.5 39.5t-52.5 111.5q0 82 60.5 126.5t175.5 44.5h102v25q0 35 -26 55.5t-70 20.5q-39 0 -64 -17t-30 -46h-136q7 79 70 122.5t167 43.5q109 0 168.5 -48t59.5 -139v-181q0 -19 8 -26t25 -7h16z
M367 222h-103q-44 0 -68.5 -17.5t-24.5 -49.5q0 -27 20.5 -43t55.5 -16q55 0 87 31.5t33 84.5v10zM118 701q22 21 54 21t53.5 -21t21.5 -52t-21.5 -52t-53.5 -21t-54 21t-22 52t22 52zM328.5 701q21.5 21 53.5 21t54 -21t22 -52t-22 -52t-54 -21t-53.5 21t-21.5 52t21.5 52z
" />
    <glyph glyph-name="aring" unicode="&#xe5;" horiz-adv-x="561" 
d="M555 119v-119h-72q-97 0 -95 84q-28 -44 -69 -67t-99 -23q-86 0 -138.5 39.5t-52.5 111.5q0 82 60.5 126.5t175.5 44.5h102v25q0 35 -26 55.5t-70 20.5q-39 0 -64 -17t-30 -46h-136q7 79 70 122.5t167 43.5q109 0 168.5 -48t59.5 -139v-181q0 -19 8 -26t25 -7h16z
M367 222h-103q-44 0 -68.5 -17.5t-24.5 -49.5q0 -27 20.5 -43t55.5 -16q55 0 87 31.5t33 84.5v10zM184.5 759.5q37.5 35.5 92.5 35.5t92.5 -35.5t37.5 -85.5q0 -51 -37.5 -86t-92.5 -35t-92.5 35t-37.5 86q0 50 37.5 85.5zM318.5 715.5q-16.5 16.5 -41.5 16.5t-41.5 -16.5
t-16.5 -41.5t16.5 -42t41.5 -17t41.5 17t16.5 42t-16.5 41.5z" />
    <glyph glyph-name="ae" unicode="&#xe6;" horiz-adv-x="910" 
d="M505 225v-4q5 -57 35.5 -88.5t85.5 -31.5q42 0 70.5 18.5t38.5 54.5h139q-8 -51 -39 -92t-82 -64.5t-117 -23.5q-70 0 -122.5 24.5t-84.5 70.5q-35 -48 -84.5 -71.5t-117.5 -23.5q-86 0 -142 40t-56 111q0 79 60.5 121t175.5 42h102v33q0 35 -26 55.5t-70 20.5
q-39 0 -64 -17t-30 -46h-136q7 79 70 122.5t167 43.5q57 0 105 -18t74 -52q31 34 73 52t92 18q76 0 134.5 -30.5t91.5 -86.5t33 -130q0 -27 -4 -48h-372zM545.5 388.5q-31.5 -26.5 -37.5 -71.5h232q-7 47 -38 72.5t-79 25.5q-46 0 -77.5 -26.5zM367 218h-97q-47 0 -73 -16
t-26 -47q0 -27 20.5 -43t55.5 -16q55 0 87.5 30t32.5 80v12z" />
    <glyph glyph-name="ccedilla" unicode="&#xe7;" horiz-adv-x="570" 
d="M362.5 132q27.5 23 35.5 63h145q-13 -85 -68 -137.5t-144 -61.5l-7 -26h17q42 0 66.5 -20.5t24.5 -56.5q0 -43 -29.5 -68t-79.5 -25h-119v69h92q29 0 29 25q0 10 -8 16t-21 6h-59l20 80q-106 11 -167 81t-61 180q0 79 32.5 138.5t93 92t140.5 32.5q103 0 168 -52.5
t80 -145.5h-146q-9 38 -36 60.5t-67 22.5q-55 0 -88 -41t-33 -107t33 -107t88 -41q41 0 68.5 23z" />
    <glyph glyph-name="egrave" unicode="&#xe8;" horiz-adv-x="581" 
d="M61.5 395.5q32.5 59.5 91 92t135.5 32.5q78 0 137.5 -30.5t93 -86t34.5 -130.5q0 -27 -4 -48h-373v-4q5 -56 36 -88t85 -32q43 0 71.5 18.5t37.5 54.5h139q-8 -51 -39 -92t-82 -64.5t-117 -23.5q-86 0 -148.5 32t-96 91.5t-33.5 138.5q0 80 32.5 139.5zM412 317
q-7 47 -38.5 72.5t-79.5 25.5q-46 0 -77.5 -26.5t-37.5 -71.5h233zM106 710h161l70 -144h-106z" />
    <glyph glyph-name="eacute" unicode="&#xe9;" horiz-adv-x="581" 
d="M61.5 395.5q32.5 59.5 91 92t135.5 32.5q78 0 137.5 -30.5t93 -86t34.5 -130.5q0 -27 -4 -48h-373v-4q5 -56 36 -88t85 -32q43 0 71.5 18.5t37.5 54.5h139q-8 -51 -39 -92t-82 -64.5t-117 -23.5q-86 0 -148.5 32t-96 91.5t-33.5 138.5q0 80 32.5 139.5zM412 317
q-7 47 -38.5 72.5t-79.5 25.5q-46 0 -77.5 -26.5t-37.5 -71.5h233zM238 569l73 141h161l-131 -141h-103z" />
    <glyph glyph-name="ecircumflex" unicode="&#xea;" horiz-adv-x="581" 
d="M61.5 395.5q32.5 59.5 91 92t135.5 32.5q78 0 137.5 -30.5t93 -86t34.5 -130.5q0 -27 -4 -48h-373v-4q5 -56 36 -88t85 -32q43 0 71.5 18.5t37.5 54.5h139q-8 -51 -39 -92t-82 -64.5t-117 -23.5q-86 0 -148.5 32t-96 91.5t-33.5 138.5q0 80 32.5 139.5zM412 317
q-7 47 -38.5 72.5t-79.5 25.5q-46 0 -77.5 -26.5t-37.5 -71.5h233zM287 627l-62 -59h-129l128 142h126l128 -142h-130z" />
    <glyph glyph-name="edieresis" unicode="&#xeb;" horiz-adv-x="581" 
d="M61.5 395.5q32.5 59.5 91 92t135.5 32.5q78 0 137.5 -30.5t93 -86t34.5 -130.5q0 -27 -4 -48h-373v-4q5 -56 36 -88t85 -32q43 0 71.5 18.5t37.5 54.5h139q-8 -51 -39 -92t-82 -64.5t-117 -23.5q-86 0 -148.5 32t-96 91.5t-33.5 138.5q0 80 32.5 139.5zM412 317
q-7 47 -38.5 72.5t-79.5 25.5q-46 0 -77.5 -26.5t-37.5 -71.5h233zM128 701q22 21 54 21t53.5 -21t21.5 -52t-21.5 -52t-53.5 -21t-54 21t-22 52t22 52zM338.5 701q21.5 21 53.5 21t54 -21t22 -52t-22 -52t-54 -21t-53.5 21t-21.5 52t21.5 52z" />
    <glyph glyph-name="igrave" unicode="&#xec;" horiz-adv-x="239" 
d="M49 514h142v-514h-142v514zM-61 710h161l70 -144h-106z" />
    <glyph glyph-name="iacute" unicode="&#xed;" horiz-adv-x="239" 
d="M49 514h142v-514h-142v514zM71 569l73 141h161l-131 -141h-103z" />
    <glyph glyph-name="icircumflex" unicode="&#xee;" horiz-adv-x="239" 
d="M49 514h142v-514h-142v514zM120 627l-62 -59h-129l128 142h126l128 -142h-130z" />
    <glyph glyph-name="idieresis" unicode="&#xef;" horiz-adv-x="239" 
d="M49 514h142v-514h-142v514zM-39 701q22 21 54 21t53.5 -21t21.5 -52t-21.5 -52t-53.5 -21t-54 21t-22 52t22 52zM171.5 701q21.5 21 53.5 21t54 -21t22 -52t-22 -52t-54 -21t-53.5 21t-21.5 52t21.5 52z" />
    <glyph glyph-name="eth" unicode="&#xf0;" horiz-adv-x="606" 
d="M524.5 451q42.5 -80 42.5 -178q0 -79 -30 -142t-91.5 -100t-151.5 -37q-79 0 -139.5 30.5t-93 84.5t-32.5 122q0 72 33 122t86 75t114 25q42 0 76 -11.5t72 -40.5q-31 70 -107 130l-114 -67l-45 76l76 45q-33 19 -96 49l80 72q61 -22 124 -58l112 66l45 -76l-78 -46
q75 -61 117.5 -141zM387 142q35 35 35 92q0 55 -36 88t-92 33q-54 0 -87.5 -35t-33.5 -90t33.5 -89t87.5 -34q58 0 93 35z" />
    <glyph glyph-name="ntilde" unicode="&#xf1;" horiz-adv-x="590" 
d="M492 464q58 -56 58 -185v-279h-141v271q0 133 -104 133q-55 0 -85 -37t-30 -104v-263h-141v514h123l13 -64q27 33 65 51.5t94 18.5q90 0 148 -56zM256.5 611.5q-9.5 -11.5 -9.5 -27.5h-82v20q0 46 26.5 76.5t68.5 30.5q21 0 35 -6.5t30 -18.5q11 -9 19.5 -13.5t19.5 -4.5
q15 0 24 11t9 28h82v-21q0 -46 -27 -76.5t-68 -30.5q-22 0 -36.5 7t-30.5 20q-12 9 -19.5 13t-16.5 4q-15 0 -24.5 -11.5z" />
    <glyph glyph-name="ograve" unicode="&#xf2;" 
d="M157.5 26.5q-61.5 32.5 -95 92.5t-33.5 138t33.5 138t95 92.5t142.5 32.5t142.5 -32.5t95 -92.5t33.5 -138q0 -79 -33.5 -138.5t-95 -92t-142.5 -32.5t-142.5 32.5zM393.5 150q34.5 41 34.5 107t-34.5 107t-93.5 41q-58 0 -92.5 -41t-34.5 -107t34.5 -107t92.5 -41
q59 0 93.5 41zM119 710h161l70 -144h-106z" />
    <glyph glyph-name="oacute" unicode="&#xf3;" 
d="M157.5 26.5q-61.5 32.5 -95 92.5t-33.5 138t33.5 138t95 92.5t142.5 32.5t142.5 -32.5t95 -92.5t33.5 -138q0 -79 -33.5 -138.5t-95 -92t-142.5 -32.5t-142.5 32.5zM393.5 150q34.5 41 34.5 107t-34.5 107t-93.5 41q-58 0 -92.5 -41t-34.5 -107t34.5 -107t92.5 -41
q59 0 93.5 41zM251 569l73 141h161l-131 -141h-103z" />
    <glyph glyph-name="ocircumflex" unicode="&#xf4;" 
d="M157.5 26.5q-61.5 32.5 -95 92.5t-33.5 138t33.5 138t95 92.5t142.5 32.5t142.5 -32.5t95 -92.5t33.5 -138q0 -79 -33.5 -138.5t-95 -92t-142.5 -32.5t-142.5 32.5zM393.5 150q34.5 41 34.5 107t-34.5 107t-93.5 41q-58 0 -92.5 -41t-34.5 -107t34.5 -107t92.5 -41
q59 0 93.5 41zM300 627l-62 -59h-129l128 142h126l128 -142h-130z" />
    <glyph glyph-name="otilde" unicode="&#xf5;" 
d="M157.5 26.5q-61.5 32.5 -95 92.5t-33.5 138t33.5 138t95 92.5t142.5 32.5t142.5 -32.5t95 -92.5t33.5 -138q0 -79 -33.5 -138.5t-95 -92t-142.5 -32.5t-142.5 32.5zM393.5 150q34.5 41 34.5 107t-34.5 107t-93.5 41q-58 0 -92.5 -41t-34.5 -107t34.5 -107t92.5 -41
q59 0 93.5 41zM234.5 611.5q-9.5 -11.5 -9.5 -27.5h-82v20q0 46 26.5 76.5t68.5 30.5q21 0 35 -6.5t30 -18.5q11 -9 19.5 -13.5t19.5 -4.5q15 0 24 11t9 28h82v-21q0 -46 -27 -76.5t-68 -30.5q-22 0 -36.5 7t-30.5 20q-12 9 -19.5 13t-16.5 4q-15 0 -24.5 -11.5z" />
    <glyph glyph-name="odieresis" unicode="&#xf6;" 
d="M157.5 26.5q-61.5 32.5 -95 92.5t-33.5 138t33.5 138t95 92.5t142.5 32.5t142.5 -32.5t95 -92.5t33.5 -138q0 -79 -33.5 -138.5t-95 -92t-142.5 -32.5t-142.5 32.5zM393.5 150q34.5 41 34.5 107t-34.5 107t-93.5 41q-58 0 -92.5 -41t-34.5 -107t34.5 -107t92.5 -41
q59 0 93.5 41zM141 701q22 21 54 21t53.5 -21t21.5 -52t-21.5 -52t-53.5 -21t-54 21t-22 52t22 52zM351.5 701q21.5 21 53.5 21t54 -21t22 -52t-22 -52t-54 -21t-53.5 21t-21.5 52t21.5 52z" />
    <glyph glyph-name="divide" unicode="&#xf7;" horiz-adv-x="515" 
d="M199.5 533q23.5 23 58.5 23t58.5 -23t23.5 -58q0 -34 -23.5 -57t-58.5 -23t-58.5 23t-23.5 57q0 35 23.5 58zM42 225v119h431v-119h-431zM199.5 162q23.5 23 58.5 23t58.5 -23t23.5 -58q0 -34 -23.5 -57t-58.5 -23t-58.5 23t-23.5 57q0 35 23.5 58z" />
    <glyph glyph-name="oslash" unicode="&#xf8;" 
d="M527 412q44 -66 44 -156q0 -78 -33.5 -137.5t-95 -92t-143.5 -32.5q-94 0 -160 43l-44 -43l-66 65l44 42q-44 64 -44 155q0 79 33.5 138.5t94.5 92.5t142 33q95 0 161 -43l45 43l66 -65zM174 200l196 189q-29 20 -71 20q-61 0 -96.5 -42.5t-35.5 -110.5q0 -26 7 -56z
M424 313l-195 -189q30 -19 70 -19q61 0 97 42t36 109q0 30 -8 57z" />
    <glyph glyph-name="ugrave" unicode="&#xf9;" horiz-adv-x="582" 
d="M533 514v-514h-125l-13 62q-27 -32 -63 -50t-88 -18q-90 0 -147 55.5t-57 185.5v279h141v-262q0 -70 24.5 -105.5t75.5 -35.5q53 0 82 39.5t29 110.5v253h141zM106 710h161l70 -144h-106z" />
    <glyph glyph-name="uacute" unicode="&#xfa;" horiz-adv-x="582" 
d="M533 514v-514h-125l-13 62q-27 -32 -63 -50t-88 -18q-90 0 -147 55.5t-57 185.5v279h141v-262q0 -70 24.5 -105.5t75.5 -35.5q53 0 82 39.5t29 110.5v253h141zM238 569l73 141h161l-131 -141h-103z" />
    <glyph glyph-name="ucircumflex" unicode="&#xfb;" horiz-adv-x="582" 
d="M533 514v-514h-125l-13 62q-27 -32 -63 -50t-88 -18q-90 0 -147 55.5t-57 185.5v279h141v-262q0 -70 24.5 -105.5t75.5 -35.5q53 0 82 39.5t29 110.5v253h141zM287 627l-62 -59h-129l128 142h126l128 -142h-130z" />
    <glyph glyph-name="udieresis" unicode="&#xfc;" horiz-adv-x="582" 
d="M533 514v-514h-125l-13 62q-27 -32 -63 -50t-88 -18q-90 0 -147 55.5t-57 185.5v279h141v-262q0 -70 24.5 -105.5t75.5 -35.5q53 0 82 39.5t29 110.5v253h141zM128 701q22 21 54 21t53.5 -21t21.5 -52t-21.5 -52t-53.5 -21t-54 21t-22 52t22 52zM338.5 701
q21.5 21 53.5 21t54 -21t22 -52t-22 -52t-54 -21t-53.5 21t-21.5 52t21.5 52z" />
    <glyph glyph-name="yacute" unicode="&#xfd;" horiz-adv-x="546" 
d="M149 514l125 -369l122 369h151l-228 -587q-18 -47 -34 -73.5t-40.5 -40t-63.5 -13.5h-137v119h78q27 0 39 9t23 35l13 34l-198 517h150zM222 569l73 141h161l-131 -141h-103z" />
    <glyph glyph-name="thorn" unicode="&#xfe;" horiz-adv-x="612" 
d="M185 700v-258q27 36 67 57t94 21q69 0 122.5 -32.5t84 -92.5t30.5 -139t-30.5 -138t-84.5 -91.5t-123 -32.5q-52 0 -91 19t-64 53v-266h-141v900h136zM405 364.5q-35 40.5 -92 40.5t-91 -40.5t-34 -106.5q0 -67 34 -108t91 -41t92 41.5t35 107.5t-35 106.5z" />
    <glyph glyph-name="ydieresis" unicode="&#xff;" horiz-adv-x="546" 
d="M149 514l125 -369l122 369h151l-228 -587q-18 -47 -34 -73.5t-40.5 -40t-63.5 -13.5h-137v119h78q27 0 39 9t23 35l13 34l-198 517h150zM112 701q22 21 54 21t53.5 -21t21.5 -52t-21.5 -52t-53.5 -21t-54 21t-22 52t22 52zM322.5 701q21.5 21 53.5 21t54 -21t22 -52
t-22 -52t-54 -21t-53.5 21t-21.5 52t21.5 52z" />
    <glyph glyph-name="Amacron" unicode="&#x100;" horiz-adv-x="698" 
d="M4 0l256 700h180l254 -700h-161l-54 153h-266l-54 -153h-155zM253 274h185l-93 266zM195 785v100h311v-100h-311z" />
    <glyph glyph-name="amacron" unicode="&#x101;" horiz-adv-x="561" 
d="M555 119v-119h-72q-97 0 -95 84q-28 -44 -69 -67t-99 -23q-86 0 -138.5 39.5t-52.5 111.5q0 82 60.5 126.5t175.5 44.5h102v25q0 35 -26 55.5t-70 20.5q-39 0 -64 -17t-30 -46h-136q7 79 70 122.5t167 43.5q109 0 168.5 -48t59.5 -139v-181q0 -19 8 -26t25 -7h16z
M367 222h-103q-44 0 -68.5 -17.5t-24.5 -49.5q0 -27 20.5 -43t55.5 -16q55 0 87 31.5t33 84.5v10zM122 599v100h311v-100h-311z" />
    <glyph glyph-name="Abreve" unicode="&#x102;" horiz-adv-x="698" 
d="M4 0l256 700h180l254 -700h-161l-54 153h-266l-54 -153h-155zM253 274h185l-93 266zM295 896q0 -26 15 -41t40 -15q24 0 39.5 15.5t15.5 40.5h101q-3 -66 -46.5 -106.5t-112.5 -40.5q-66 0 -108 40.5t-45 106.5h101z" />
    <glyph glyph-name="abreve" unicode="&#x103;" horiz-adv-x="561" 
d="M555 119v-119h-72q-97 0 -95 84q-28 -44 -69 -67t-99 -23q-86 0 -138.5 39.5t-52.5 111.5q0 82 60.5 126.5t175.5 44.5h102v25q0 35 -26 55.5t-70 20.5q-39 0 -64 -17t-30 -46h-136q7 79 70 122.5t167 43.5q109 0 168.5 -48t59.5 -139v-181q0 -19 8 -26t25 -7h16z
M367 222h-103q-44 0 -68.5 -17.5t-24.5 -49.5q0 -27 20.5 -43t55.5 -16q55 0 87 31.5t33 84.5v10zM222 710q0 -26 15 -41t40 -15q24 0 39.5 15.5t15.5 40.5h101q-3 -66 -46.5 -106.5t-112.5 -40.5q-66 0 -108 40.5t-45 106.5h101z" />
    <glyph glyph-name="Aogonek" unicode="&#x104;" horiz-adv-x="698" 
d="M696 -106v-94h-90q-51 0 -85 26.5t-34 70.5q0 57 56 103h-10l-54 153h-266l-54 -153h-155l256 700h180l254 -700q-47 -21 -71 -40.5t-24 -39.5q0 -26 33 -26h64zM253 274h185l-93 266z" />
    <glyph glyph-name="aogonek" unicode="&#x105;" horiz-adv-x="561" 
d="M557 -106v-94h-90q-51 0 -85 26.5t-34 70.5q0 35 19 63t54 53q-35 21 -33 71q-28 -44 -69 -67t-99 -23q-86 0 -138.5 39.5t-52.5 111.5q0 82 60.5 126.5t175.5 44.5h102v25q0 35 -26 55.5t-70 20.5q-39 0 -64 -17t-30 -46h-136q7 79 70 122.5t167 43.5q109 0 168.5 -48
t59.5 -139v-181q0 -19 8 -26t25 -7h16v-119q-47 -21 -71 -40.5t-24 -39.5q0 -26 33 -26h64zM367 222h-103q-44 0 -68.5 -17.5t-24.5 -49.5q0 -27 20.5 -43t55.5 -16q55 0 87 31.5t33 84.5v10z" />
    <glyph glyph-name="Cacute" unicode="&#x106;" horiz-adv-x="702" 
d="M73.5 537.5q41.5 80.5 119 124.5t182.5 44q82 0 147 -32t105 -90t48 -134h-150q-13 60 -54.5 94.5t-103.5 34.5q-84 0 -133 -63t-49 -166q0 -102 49 -165.5t133 -63.5q62 0 103.5 34.5t54.5 94.5h150q-8 -76 -48 -134t-105 -90t-147 -32q-105 0 -182.5 44t-119 124.5
t-41.5 187.5t41.5 187.5zM326 755l73 141h161l-131 -141h-103z" />
    <glyph glyph-name="cacute" unicode="&#x107;" horiz-adv-x="570" 
d="M463.5 47.5q-65.5 -53.5 -169.5 -53.5q-80 0 -140 32.5t-92.5 92.5t-32.5 138q0 79 32.5 138.5t93 92t140.5 32.5q103 0 168 -52.5t80 -145.5h-146q-9 38 -36 60.5t-67 22.5q-55 0 -88 -41t-33 -107t33 -107t88 -41q41 0 68.5 23t35.5 63h145q-14 -94 -79.5 -147.5z
M248 569l73 141h161l-131 -141h-103z" />
    <glyph glyph-name="Ccircumflex" unicode="&#x108;" horiz-adv-x="702" 
d="M73.5 537.5q41.5 80.5 119 124.5t182.5 44q82 0 147 -32t105 -90t48 -134h-150q-13 60 -54.5 94.5t-103.5 34.5q-84 0 -133 -63t-49 -166q0 -102 49 -165.5t133 -63.5q62 0 103.5 34.5t54.5 94.5h150q-8 -76 -48 -134t-105 -90t-147 -32q-105 0 -182.5 44t-119 124.5
t-41.5 187.5t41.5 187.5zM375 813l-62 -59h-129l128 142h126l128 -142h-130z" />
    <glyph glyph-name="ccircumflex" unicode="&#x109;" horiz-adv-x="570" 
d="M463.5 47.5q-65.5 -53.5 -169.5 -53.5q-80 0 -140 32.5t-92.5 92.5t-32.5 138q0 79 32.5 138.5t93 92t140.5 32.5q103 0 168 -52.5t80 -145.5h-146q-9 38 -36 60.5t-67 22.5q-55 0 -88 -41t-33 -107t33 -107t88 -41q41 0 68.5 23t35.5 63h145q-14 -94 -79.5 -147.5z
M297 627l-62 -59h-129l128 142h126l128 -142h-130z" />
    <glyph glyph-name="Cdotaccent" unicode="&#x10a;" horiz-adv-x="702" 
d="M73.5 537.5q41.5 80.5 119 124.5t182.5 44q82 0 147 -32t105 -90t48 -134h-150q-13 60 -54.5 94.5t-103.5 34.5q-84 0 -133 -63t-49 -166q0 -102 49 -165.5t133 -63.5q62 0 103.5 34.5t54.5 94.5h150q-8 -76 -48 -134t-105 -90t-147 -32q-105 0 -182.5 44t-119 124.5
t-41.5 187.5t41.5 187.5zM317 901.5q23 22.5 58 22.5t58 -22.5t23 -56.5t-23 -56.5t-58 -22.5t-58 22.5t-23 56.5t23 56.5z" />
    <glyph glyph-name="cdotaccent" unicode="&#x10b;" horiz-adv-x="570" 
d="M463.5 47.5q-65.5 -53.5 -169.5 -53.5q-80 0 -140 32.5t-92.5 92.5t-32.5 138q0 79 32.5 138.5t93 92t140.5 32.5q103 0 168 -52.5t80 -145.5h-146q-9 38 -36 60.5t-67 22.5q-55 0 -88 -41t-33 -107t33 -107t88 -41q41 0 68.5 23t35.5 63h145q-14 -94 -79.5 -147.5z
M239 715.5q23 22.5 58 22.5t58 -22.5t23 -56.5t-23 -56.5t-58 -22.5t-58 22.5t-23 56.5t23 56.5z" />
    <glyph glyph-name="Ccaron" unicode="&#x10c;" horiz-adv-x="702" 
d="M73.5 537.5q41.5 80.5 119 124.5t182.5 44q82 0 147 -32t105 -90t48 -134h-150q-13 60 -54.5 94.5t-103.5 34.5q-84 0 -133 -63t-49 -166q0 -102 49 -165.5t133 -63.5q62 0 103.5 34.5t54.5 94.5h150q-8 -76 -48 -134t-105 -90t-147 -32q-105 0 -182.5 44t-119 124.5
t-41.5 187.5t41.5 187.5zM375 837l62 59h129l-128 -142h-126l-128 142h130z" />
    <glyph glyph-name="ccaron" unicode="&#x10d;" horiz-adv-x="570" 
d="M463.5 47.5q-65.5 -53.5 -169.5 -53.5q-80 0 -140 32.5t-92.5 92.5t-32.5 138q0 79 32.5 138.5t93 92t140.5 32.5q103 0 168 -52.5t80 -145.5h-146q-9 38 -36 60.5t-67 22.5q-55 0 -88 -41t-33 -107t33 -107t88 -41q41 0 68.5 23t35.5 63h145q-14 -94 -79.5 -147.5z
M297 651l62 59h129l-128 -142h-126l-128 142h130z" />
    <glyph glyph-name="Dcaron" unicode="&#x10e;" horiz-adv-x="688" 
d="M60 700h243q105 0 185.5 -44.5t124 -124t43.5 -181.5t-43.5 -181.5t-124 -124t-185.5 -44.5h-243v700zM303 125q95 0 147.5 61.5t52.5 163.5t-52.5 163.5t-147.5 61.5h-93v-450h93zM330 837l62 59h129l-128 -142h-126l-128 142h130z" />
    <glyph glyph-name="dcaron" unicode="&#x10f;" horiz-adv-x="679" 
d="M563 700v-700h-123l-14 71q-59 -77 -160 -77q-68 0 -122 32.5t-84.5 92.5t-30.5 139q0 78 30.5 137.5t85 92t122.5 32.5q100 0 155 -70v250h141zM390 149.5q34 40.5 34 106.5q0 67 -34 108t-91 41t-91.5 -41t-34.5 -107t34.5 -107t91.5 -41t91 40.5zM632 700h132
l-68 -148h-99z" />
    <glyph glyph-name="Dcroat" unicode="&#x110;" horiz-adv-x="704" 
d="M504.5 655.5q80.5 -44.5 124 -124t43.5 -181.5t-43.5 -181.5t-124 -124t-185.5 -44.5h-243v303h-79v104h79v293h243q105 0 185.5 -44.5zM466.5 186.5q52.5 61.5 52.5 163.5t-52.5 163.5t-147.5 61.5h-93v-168h112v-104h-112v-178h93q95 0 147.5 61.5z" />
    <glyph glyph-name="dcroat" unicode="&#x111;" horiz-adv-x="622" 
d="M638 548h-75v-548h-123l-14 71q-59 -77 -160 -77q-68 0 -122 32.5t-84.5 92.5t-30.5 139q0 78 30.5 137.5t85 92t122.5 32.5q100 0 155 -70v98h-137v103h137v49h141v-49h75v-103zM390 149.5q34 40.5 34 106.5q0 67 -34 108t-91 41t-91.5 -41t-34.5 -107t34.5 -107
t91.5 -41t91 40.5z" />
    <glyph glyph-name="Emacron" unicode="&#x112;" horiz-adv-x="571" 
d="M60 700h470v-129h-320v-157h260v-123h-260v-162h331v-129h-481v700zM144 785v100h311v-100h-311z" />
    <glyph glyph-name="emacron" unicode="&#x113;" horiz-adv-x="581" 
d="M61.5 395.5q32.5 59.5 91 92t135.5 32.5q78 0 137.5 -30.5t93 -86t34.5 -130.5q0 -27 -4 -48h-373v-4q5 -56 36 -88t85 -32q43 0 71.5 18.5t37.5 54.5h139q-8 -51 -39 -92t-82 -64.5t-117 -23.5q-86 0 -148.5 32t-96 91.5t-33.5 138.5q0 80 32.5 139.5zM412 317
q-7 47 -38.5 72.5t-79.5 25.5q-46 0 -77.5 -26.5t-37.5 -71.5h233zM132 599v100h311v-100h-311z" />
    <glyph glyph-name="Ebreve" unicode="&#x114;" horiz-adv-x="571" 
d="M60 700h470v-129h-320v-157h260v-123h-260v-162h331v-129h-481v700zM244 896q0 -26 15 -41t40 -15q24 0 39.5 15.5t15.5 40.5h101q-3 -66 -46.5 -106.5t-112.5 -40.5q-66 0 -108 40.5t-45 106.5h101z" />
    <glyph glyph-name="ebreve" unicode="&#x115;" horiz-adv-x="581" 
d="M61.5 395.5q32.5 59.5 91 92t135.5 32.5q78 0 137.5 -30.5t93 -86t34.5 -130.5q0 -27 -4 -48h-373v-4q5 -56 36 -88t85 -32q43 0 71.5 18.5t37.5 54.5h139q-8 -51 -39 -92t-82 -64.5t-117 -23.5q-86 0 -148.5 32t-96 91.5t-33.5 138.5q0 80 32.5 139.5zM412 317
q-7 47 -38.5 72.5t-79.5 25.5q-46 0 -77.5 -26.5t-37.5 -71.5h233zM232 710q0 -26 15 -41t40 -15q24 0 39.5 15.5t15.5 40.5h101q-3 -66 -46.5 -106.5t-112.5 -40.5q-66 0 -108 40.5t-45 106.5h101z" />
    <glyph glyph-name="Edotaccent" unicode="&#x116;" horiz-adv-x="571" 
d="M60 700h470v-129h-320v-157h260v-123h-260v-162h331v-129h-481v700zM241 901.5q23 22.5 58 22.5t58 -22.5t23 -56.5t-23 -56.5t-58 -22.5t-58 22.5t-23 56.5t23 56.5z" />
    <glyph glyph-name="edotaccent" unicode="&#x117;" horiz-adv-x="581" 
d="M61.5 395.5q32.5 59.5 91 92t135.5 32.5q78 0 137.5 -30.5t93 -86t34.5 -130.5q0 -27 -4 -48h-373v-4q5 -56 36 -88t85 -32q43 0 71.5 18.5t37.5 54.5h139q-8 -51 -39 -92t-82 -64.5t-117 -23.5q-86 0 -148.5 32t-96 91.5t-33.5 138.5q0 80 32.5 139.5zM412 317
q-7 47 -38.5 72.5t-79.5 25.5q-46 0 -77.5 -26.5t-37.5 -71.5h233zM229 715.5q23 22.5 58 22.5t58 -22.5t23 -56.5t-23 -56.5t-58 -22.5t-58 22.5t-23 56.5t23 56.5z" />
    <glyph glyph-name="Eogonek" unicode="&#x118;" horiz-adv-x="571" 
d="M543 -106v-94h-90q-51 0 -85 26.5t-34 70.5q0 57 56 103h-330v700h470v-129h-320v-157h260v-123h-260v-162h331v-129q-47 -21 -71 -40.5t-24 -39.5q0 -26 33 -26h64z" />
    <glyph glyph-name="eogonek" unicode="&#x119;" horiz-adv-x="581" 
d="M176 225v-4q5 -56 36 -88t85 -32q43 0 71.5 18.5t37.5 54.5h139q-10 -64 -56.5 -111.5t-119.5 -62.5q-47 -21 -71 -40.5t-24 -39.5q0 -26 33 -26h64v-94h-90q-51 0 -85 26.5t-34 70.5q0 58 60 106q-92 22 -142.5 88.5t-50.5 164.5q0 80 32.5 139.5t91 92t135.5 32.5
q78 0 137.5 -30.5t93 -86t34.5 -130.5q0 -27 -4 -48h-373zM216.5 388.5q-31.5 -26.5 -37.5 -71.5h233q-7 47 -38.5 72.5t-79.5 25.5q-46 0 -77.5 -26.5z" />
    <glyph glyph-name="Ecaron" unicode="&#x11a;" horiz-adv-x="571" 
d="M60 700h470v-129h-320v-157h260v-123h-260v-162h331v-129h-481v700zM299 837l62 59h129l-128 -142h-126l-128 142h130z" />
    <glyph glyph-name="ecaron" unicode="&#x11b;" horiz-adv-x="581" 
d="M61.5 395.5q32.5 59.5 91 92t135.5 32.5q78 0 137.5 -30.5t93 -86t34.5 -130.5q0 -27 -4 -48h-373v-4q5 -56 36 -88t85 -32q43 0 71.5 18.5t37.5 54.5h139q-8 -51 -39 -92t-82 -64.5t-117 -23.5q-86 0 -148.5 32t-96 91.5t-33.5 138.5q0 80 32.5 139.5zM412 317
q-7 47 -38.5 72.5t-79.5 25.5q-46 0 -77.5 -26.5t-37.5 -71.5h233zM287 651l62 59h129l-128 -142h-126l-128 142h130z" />
    <glyph glyph-name="Gcircumflex" unicode="&#x11c;" horiz-adv-x="749" 
d="M74 537.5q42 80.5 120.5 124.5t184.5 44q83 0 149 -32t106.5 -90t49.5 -133h-148q-14 59 -56 93.5t-105 34.5q-58 0 -101 -29t-66 -81t-23 -119q0 -103 50.5 -166t139.5 -63q65 0 115 35.5t60 104.5v9h-174v119h313v-389h-104l-16 87q-31 -41 -83 -67t-121 -26
q-99 0 -174.5 44t-117 125t-41.5 187q0 107 42 187.5zM379 813l-62 -59h-129l128 142h126l128 -142h-130z" />
    <glyph glyph-name="gcircumflex" unicode="&#x11d;" horiz-adv-x="612" 
d="M563 514v-499q0 -101 -67 -161t-208 -60q-109 0 -176 48t-72 136h142q10 -37 39.5 -57t77.5 -20q60 0 93 30t33 89v54q-56 -71 -159 -71q-68 0 -122 32t-84.5 90.5t-30.5 136.5q0 77 30.5 136t85 91t122.5 32q101 0 160 -78l12 71h124zM390 156q34 40 34 104
q0 65 -34 106t-91 41t-91.5 -40.5t-34.5 -105.5t34.5 -105t91.5 -40t91 40zM297 627l-62 -59h-129l128 142h126l128 -142h-130z" />
    <glyph glyph-name="Gbreve" unicode="&#x11e;" horiz-adv-x="749" 
d="M74 537.5q42 80.5 120.5 124.5t184.5 44q83 0 149 -32t106.5 -90t49.5 -133h-148q-14 59 -56 93.5t-105 34.5q-58 0 -101 -29t-66 -81t-23 -119q0 -103 50.5 -166t139.5 -63q65 0 115 35.5t60 104.5v9h-174v119h313v-389h-104l-16 87q-31 -41 -83 -67t-121 -26
q-99 0 -174.5 44t-117 125t-41.5 187q0 107 42 187.5zM324 896q0 -26 15 -41t40 -15q24 0 39.5 15.5t15.5 40.5h101q-3 -66 -46.5 -106.5t-112.5 -40.5q-66 0 -108 40.5t-45 106.5h101z" />
    <glyph glyph-name="gbreve" unicode="&#x11f;" horiz-adv-x="612" 
d="M563 514v-499q0 -101 -67 -161t-208 -60q-109 0 -176 48t-72 136h142q10 -37 39.5 -57t77.5 -20q60 0 93 30t33 89v54q-56 -71 -159 -71q-68 0 -122 32t-84.5 90.5t-30.5 136.5q0 77 30.5 136t85 91t122.5 32q101 0 160 -78l12 71h124zM390 156q34 40 34 104
q0 65 -34 106t-91 41t-91.5 -40.5t-34.5 -105.5t34.5 -105t91.5 -40t91 40zM242 710q0 -26 15 -41t40 -15q24 0 39.5 15.5t15.5 40.5h101q-3 -66 -46.5 -106.5t-112.5 -40.5q-66 0 -108 40.5t-45 106.5h101z" />
    <glyph glyph-name="Gdotaccent" unicode="&#x120;" horiz-adv-x="749" 
d="M74 537.5q42 80.5 120.5 124.5t184.5 44q83 0 149 -32t106.5 -90t49.5 -133h-148q-14 59 -56 93.5t-105 34.5q-58 0 -101 -29t-66 -81t-23 -119q0 -103 50.5 -166t139.5 -63q65 0 115 35.5t60 104.5v9h-174v119h313v-389h-104l-16 87q-31 -41 -83 -67t-121 -26
q-99 0 -174.5 44t-117 125t-41.5 187q0 107 42 187.5zM321 901.5q23 22.5 58 22.5t58 -22.5t23 -56.5t-23 -56.5t-58 -22.5t-58 22.5t-23 56.5t23 56.5z" />
    <glyph glyph-name="gdotaccent" unicode="&#x121;" horiz-adv-x="612" 
d="M563 514v-499q0 -101 -67 -161t-208 -60q-109 0 -176 48t-72 136h142q10 -37 39.5 -57t77.5 -20q60 0 93 30t33 89v54q-56 -71 -159 -71q-68 0 -122 32t-84.5 90.5t-30.5 136.5q0 77 30.5 136t85 91t122.5 32q101 0 160 -78l12 71h124zM390 156q34 40 34 104
q0 65 -34 106t-91 41t-91.5 -40.5t-34.5 -105.5t34.5 -105t91.5 -40t91 40zM239 715.5q23 22.5 58 22.5t58 -22.5t23 -56.5t-23 -56.5t-58 -22.5t-58 22.5t-23 56.5t23 56.5z" />
    <glyph glyph-name="Gcommaaccent" unicode="&#x122;" horiz-adv-x="749" 
d="M74 537.5q42 80.5 120.5 124.5t184.5 44q83 0 149 -32t106.5 -90t49.5 -133h-148q-14 59 -56 93.5t-105 34.5q-58 0 -101 -29t-66 -81t-23 -119q0 -103 50.5 -166t139.5 -63q65 0 115 35.5t60 104.5v9h-174v119h313v-389h-104l-16 87q-31 -41 -83 -67t-121 -26
q-99 0 -174.5 44t-117 125t-41.5 187q0 107 42 187.5zM294 -48h137l-85 -147h-105z" />
    <glyph glyph-name="gcommaaccent" unicode="&#x123;" horiz-adv-x="612" 
d="M563 514v-499q0 -101 -67 -161t-208 -60q-109 0 -176 48t-72 136h142q10 -37 39.5 -57t77.5 -20q60 0 93 30t33 89v54q-56 -71 -159 -71q-68 0 -122 32t-84.5 90.5t-30.5 136.5q0 77 30.5 136t85 91t122.5 32q101 0 160 -78l12 71h124zM390 156q34 40 34 104
q0 65 -34 106t-91 41t-91.5 -40.5t-34.5 -105.5t34.5 -105t91.5 -40t91 40zM358 564h-137l83 146h107z" />
    <glyph glyph-name="Hcircumflex" unicode="&#x124;" horiz-adv-x="697" 
d="M60 700h150v-281h278v281h150v-700h-150v289h-278v-289h-150v700zM349 813l-62 -59h-129l128 142h126l128 -142h-130z" />
    <glyph glyph-name="hcircumflex" unicode="&#x125;" horiz-adv-x="590" 
d="M491.5 464q58.5 -56 58.5 -185v-279h-141v273q0 64 -26 97.5t-78 33.5q-54 0 -84.5 -37t-30.5 -103v-264h-141v700h141v-249q57 69 152 69q91 0 149.5 -56zM119 806l-62 -59h-129l128 142h126l128 -142h-130z" />
    <glyph glyph-name="Hbar" unicode="&#x126;" horiz-adv-x="721" 
d="M724 597v-103h-74v-494h-150v266h-279v-266h-150v494h-74v103h74v103h150v-103h279v103h150v-103h74zM500 396v98h-279v-98h279z" />
    <glyph glyph-name="hbar" unicode="&#x127;" 
d="M501.5 464q58.5 -56 58.5 -185v-279h-141v273q0 64 -26 97.5t-78 33.5q-54 0 -84.5 -37t-30.5 -103v-264h-141v548h-75v103h75v49h141v-49h137v-103h-137v-97q57 69 152 69q91 0 149.5 -56z" />
    <glyph glyph-name="Itilde" unicode="&#x128;" horiz-adv-x="269" 
d="M60 700h150v-700h-150v700zM68.5 797.5q-9.5 -11.5 -9.5 -27.5h-82v20q0 46 26.5 76.5t68.5 30.5q21 0 35 -6.5t30 -18.5q11 -9 19.5 -13.5t19.5 -4.5q15 0 24 11t9 28h82v-21q0 -46 -27 -76.5t-68 -30.5q-22 0 -36.5 7t-30.5 20q-12 9 -19.5 13t-16.5 4
q-15 0 -24.5 -11.5z" />
    <glyph glyph-name="itilde" unicode="&#x129;" horiz-adv-x="239" 
d="M49 514h142v-514h-142v514zM54.5 611.5q-9.5 -11.5 -9.5 -27.5h-82v20q0 46 26.5 76.5t68.5 30.5q21 0 35 -6.5t30 -18.5q11 -9 19.5 -13.5t19.5 -4.5q15 0 24 11t9 28h82v-21q0 -46 -27 -76.5t-68 -30.5q-22 0 -36.5 7t-30.5 20q-12 9 -19.5 13t-16.5 4
q-15 0 -24.5 -11.5z" />
    <glyph glyph-name="Imacron" unicode="&#x12a;" horiz-adv-x="269" 
d="M60 700h150v-700h-150v700zM-21 785v100h311v-100h-311z" />
    <glyph glyph-name="imacron" unicode="&#x12b;" horiz-adv-x="239" 
d="M49 514h142v-514h-142v514zM-35 599v100h311v-100h-311z" />
    <glyph glyph-name="Ibreve" unicode="&#x12c;" horiz-adv-x="269" 
d="M60 700h150v-700h-150v700zM79 896q0 -26 15 -41t40 -15q24 0 39.5 15.5t15.5 40.5h101q-3 -66 -46.5 -106.5t-112.5 -40.5q-66 0 -108 40.5t-45 106.5h101z" />
    <glyph glyph-name="ibreve" unicode="&#x12d;" horiz-adv-x="239" 
d="M49 514h142v-514h-142v514zM65 710q0 -26 15 -41t40 -15q24 0 39.5 15.5t15.5 40.5h101q-3 -66 -46.5 -106.5t-112.5 -40.5q-66 0 -108 40.5t-45 106.5h101z" />
    <glyph glyph-name="Iogonek" unicode="&#x12e;" horiz-adv-x="269" 
d="M212 -106v-94h-90q-51 0 -85 26.5t-34 70.5q0 56 57 104v699h150v-700q-47 -21 -71 -40.5t-24 -39.5q0 -26 33 -26h64z" />
    <glyph glyph-name="iogonek" unicode="&#x12f;" horiz-adv-x="239" 
d="M61.5 592q-23.5 23 -23.5 57t23.5 56.5t58.5 22.5t58 -22.5t23 -56.5t-23 -57t-58 -23t-58.5 23zM128 -106h64v-94h-90q-51 0 -85 26.5t-34 70.5q0 61 66 111v506h141v-514q-47 -21 -71 -40.5t-24 -39.5q0 -26 33 -26z" />
    <glyph glyph-name="Idotaccent" unicode="&#x130;" horiz-adv-x="269" 
d="M60 700h150v-700h-150v700zM76 901.5q23 22.5 58 22.5t58 -22.5t23 -56.5t-23 -56.5t-58 -22.5t-58 22.5t-23 56.5t23 56.5z" />
    <glyph glyph-name="dotlessi" unicode="&#x131;" horiz-adv-x="239" 
d="M49 514h142v-514h-142v514z" />
    <glyph glyph-name="IJ" unicode="&#x132;" horiz-adv-x="654" 
d="M206 273q0 -72 30 -112t91 -40q62 0 91.5 37.5t29.5 112.5v429h151v-425q0 -138 -70 -209.5t-202 -71.5q-133 0 -203 70.5t-69 208.5h151zM57 700h150v-339h-150v339z" />
    <glyph glyph-name="ij" unicode="&#x133;" horiz-adv-x="483" 
d="M178 705.5q23 -22.5 23 -56.5t-23 -57t-58 -23t-58.5 23t-23.5 57t23.5 56.5t58.5 22.5t58 -22.5zM49 514h141v-514h-141v514zM421.5 705.5q23.5 -22.5 23.5 -56.5t-23.5 -57t-58.5 -23t-58 23t-23 57t23 56.5t58 22.5t58.5 -22.5zM242 -81q26 0 38.5 13.5t12.5 43.5v538
h141v-558q0 -73 -38 -114.5t-110 -41.5h-93v119h49z" />
    <glyph glyph-name="Jcircumflex" unicode="&#x134;" horiz-adv-x="397" 
d="M337 700v-514q0 -88 -48.5 -137t-137.5 -49h-129v130h83q44 0 63 20.5t19 64.5v485h150zM262 813l-62 -59h-129l128 142h126l128 -142h-130z" />
    <glyph glyph-name="jcircumflex" unicode="&#x135;" horiz-adv-x="244" 
d="M3 -81q26 0 38.5 13.5t12.5 43.5v538h141v-558q0 -73 -38 -114.5t-110 -41.5h-93v119h49zM125 627l-62 -59h-129l128 142h126l128 -142h-130z" />
    <glyph glyph-name="Kcommaaccent" unicode="&#x136;" horiz-adv-x="683" 
d="M60 699h150v-314l280 314h182l-257 -288l274 -411h-180l-200 295l-99 -111v-184h-150v699zM268 -48h137l-85 -147h-105z" />
    <glyph glyph-name="kcommaaccent" unicode="&#x137;" horiz-adv-x="562" 
d="M49 700h141v-405l202 219h158l-183 -201l193 -313h-163l-130 208l-77 -83v-125h-141v700zM224 -48h137l-85 -147h-105z" />
    <glyph glyph-name="Lacute" unicode="&#x139;" horiz-adv-x="509" 
d="M60 0v700h150v-571h278v-129h-428zM85 755l73 141h161l-131 -141h-103z" />
    <glyph glyph-name="lacute" unicode="&#x13a;" horiz-adv-x="239" 
d="M49 700h141v-700h-141v700zM70 748l73 141h161l-131 -141h-103z" />
    <glyph glyph-name="Lcommaaccent" unicode="&#x13b;" horiz-adv-x="509" 
d="M60 0v700h150v-571h278v-129h-428zM199 -48h137l-85 -147h-105z" />
    <glyph glyph-name="lcommaaccent" unicode="&#x13c;" horiz-adv-x="239" 
d="M49 700h141v-700h-141v700zM47 -48h137l-85 -147h-105z" />
    <glyph glyph-name="Lcaron" unicode="&#x13d;" horiz-adv-x="509" 
d="M60 0v700h150v-571h278v-129h-428zM286 700h132l-68 -148h-99z" />
    <glyph glyph-name="lcaron" unicode="&#x13e;" horiz-adv-x="305" 
d="M49 700h141v-700h-141v700zM259 700h132l-68 -148h-99z" />
    <glyph glyph-name="Ldot" unicode="&#x13f;" horiz-adv-x="509" 
d="M60 0v700h150v-571h278v-129h-428zM326 438.5q23 22.5 58 22.5t58 -22.5t23 -56.5t-23 -56.5t-58 -22.5t-58 22.5t-23 56.5t23 56.5z" />
    <glyph glyph-name="ldot" unicode="&#x140;" horiz-adv-x="379" 
d="M49 700h141v-700h-141v700zM252 392.5q23 22.5 58 22.5t58 -22.5t23 -56.5t-23 -56.5t-58 -22.5t-58 22.5t-23 56.5t23 56.5z" />
    <glyph glyph-name="Lslash" unicode="&#x141;" horiz-adv-x="521" 
d="M221 129h278v-129h-428v265l-74 -39v116l74 39v319h150v-240l140 74v-115l-140 -74v-216z" />
    <glyph glyph-name="lslash" unicode="&#x142;" horiz-adv-x="309" 
d="M301 499v-122l-76 -34v-343h-141v281l-76 -34v122l76 34v297h141v-235z" />
    <glyph glyph-name="Nacute" unicode="&#x143;" horiz-adv-x="700" 
d="M60 0v700h136l297 -441v441h148v-700h-137l-297 441v-441h-147zM290 755l73 141h161l-131 -141h-103z" />
    <glyph glyph-name="nacute" unicode="&#x144;" horiz-adv-x="590" 
d="M492 464q58 -56 58 -185v-279h-141v271q0 133 -104 133q-55 0 -85 -37t-30 -104v-263h-141v514h123l13 -64q27 33 65 51.5t94 18.5q90 0 148 -56zM273 569l73 141h161l-131 -141h-103z" />
    <glyph glyph-name="Ncommaaccent" unicode="&#x145;" horiz-adv-x="700" 
d="M60 0v700h136l297 -441v441h148v-700h-137l-297 441v-441h-147zM275 -48h137l-85 -147h-105z" />
    <glyph glyph-name="ncommaaccent" unicode="&#x146;" horiz-adv-x="590" 
d="M492 464q58 -56 58 -185v-279h-141v271q0 133 -104 133q-55 0 -85 -37t-30 -104v-263h-141v514h123l13 -64q27 33 65 51.5t94 18.5q90 0 148 -56zM229 -48h137l-85 -147h-105z" />
    <glyph glyph-name="Ncaron" unicode="&#x147;" horiz-adv-x="700" 
d="M60 0v700h136l297 -441v441h148v-700h-137l-297 441v-441h-147zM339 837l62 59h129l-128 -142h-126l-128 142h130z" />
    <glyph glyph-name="ncaron" unicode="&#x148;" horiz-adv-x="590" 
d="M492 464q58 -56 58 -185v-279h-141v271q0 133 -104 133q-55 0 -85 -37t-30 -104v-263h-141v514h123l13 -64q27 33 65 51.5t94 18.5q90 0 148 -56zM322 651l62 59h129l-128 -142h-126l-128 142h130z" />
    <glyph glyph-name="napostrophe" unicode="&#x149;" horiz-adv-x="806" 
d="M190 669.5q29 -36.5 29 -94.5q0 -83 -50 -127t-137 -45v73q46 1 70.5 20t24.5 48q0 10 -1 14q-16 -8 -32 -8q-29 0 -48.5 19.5t-19.5 56.5q0 33 25.5 56.5t62.5 23.5q47 0 76 -36.5zM708 464q58 -56 58 -185v-279h-141v271q0 133 -104 133q-55 0 -85 -37t-30 -104v-263
h-141v514h123l13 -64q27 33 65 51.5t94 18.5q90 0 148 -56z" />
    <glyph glyph-name="Eng" unicode="&#x14a;" horiz-adv-x="700" 
d="M641 700v-735q0 -79 -40 -122t-116 -43h-88v122h49q26 0 38.5 13.5t12.5 43.5v31l-290 431v-441h-147v700h136l297 -441v441h148z" />
    <glyph glyph-name="eng" unicode="&#x14b;" horiz-adv-x="590" 
d="M492 464q58 -56 58 -185v-317q0 -75 -40 -118.5t-115 -43.5h-89v119h50q27 0 40 14t13 45v293q0 133 -104 133q-55 0 -85 -37t-30 -104v-263h-141v514h123l13 -65q55 71 159 71q90 0 148 -56z" />
    <glyph glyph-name="Omacron" unicode="&#x14c;" horiz-adv-x="757" 
d="M682 167.5q-44 -81.5 -123 -127.5t-180 -46t-180 46t-123 127.5t-44 182.5t44 182.5t123 127.5t180 46t180 -46t123 -127.5t44 -182.5t-44 -182.5zM209 232q24 -52 68 -81.5t102 -29.5q57 0 101 29.5t68 81.5t24 118t-24 118t-68 81.5t-101 29.5q-58 0 -102 -29.5
t-68 -81.5t-24 -118t24 -118zM224 785v100h311v-100h-311z" />
    <glyph glyph-name="omacron" unicode="&#x14d;" 
d="M157.5 26.5q-61.5 32.5 -95 92.5t-33.5 138t33.5 138t95 92.5t142.5 32.5t142.5 -32.5t95 -92.5t33.5 -138q0 -79 -33.5 -138.5t-95 -92t-142.5 -32.5t-142.5 32.5zM393.5 150q34.5 41 34.5 107t-34.5 107t-93.5 41q-58 0 -92.5 -41t-34.5 -107t34.5 -107t92.5 -41
q59 0 93.5 41zM145 599v100h311v-100h-311z" />
    <glyph glyph-name="Obreve" unicode="&#x14e;" horiz-adv-x="757" 
d="M682 167.5q-44 -81.5 -123 -127.5t-180 -46t-180 46t-123 127.5t-44 182.5t44 182.5t123 127.5t180 46t180 -46t123 -127.5t44 -182.5t-44 -182.5zM209 232q24 -52 68 -81.5t102 -29.5q57 0 101 29.5t68 81.5t24 118t-24 118t-68 81.5t-101 29.5q-58 0 -102 -29.5
t-68 -81.5t-24 -118t24 -118zM324 896q0 -26 15 -41t40 -15q24 0 39.5 15.5t15.5 40.5h101q-3 -66 -46.5 -106.5t-112.5 -40.5q-66 0 -108 40.5t-45 106.5h101z" />
    <glyph glyph-name="obreve" unicode="&#x14f;" 
d="M157.5 26.5q-61.5 32.5 -95 92.5t-33.5 138t33.5 138t95 92.5t142.5 32.5t142.5 -32.5t95 -92.5t33.5 -138q0 -79 -33.5 -138.5t-95 -92t-142.5 -32.5t-142.5 32.5zM393.5 150q34.5 41 34.5 107t-34.5 107t-93.5 41q-58 0 -92.5 -41t-34.5 -107t34.5 -107t92.5 -41
q59 0 93.5 41zM245 710q0 -26 15 -41t40 -15q24 0 39.5 15.5t15.5 40.5h101q-3 -66 -46.5 -106.5t-112.5 -40.5q-66 0 -108 40.5t-45 106.5h101z" />
    <glyph glyph-name="Ohungarumlaut" unicode="&#x150;" horiz-adv-x="757" 
d="M682 167.5q-44 -81.5 -123 -127.5t-180 -46t-180 46t-123 127.5t-44 182.5t44 182.5t123 127.5t180 46t180 -46t123 -127.5t44 -182.5t-44 -182.5zM209 232q24 -52 68 -81.5t102 -29.5q57 0 101 29.5t68 81.5t24 118t-24 118t-68 81.5t-101 29.5q-58 0 -102 -29.5
t-68 -81.5t-24 -118t24 -118zM219 752l73 144h154l-131 -144h-96zM418 752l74 144h153l-130 -144h-97z" />
    <glyph glyph-name="ohungarumlaut" unicode="&#x151;" 
d="M157.5 26.5q-61.5 32.5 -95 92.5t-33.5 138t33.5 138t95 92.5t142.5 32.5t142.5 -32.5t95 -92.5t33.5 -138q0 -79 -33.5 -138.5t-95 -92t-142.5 -32.5t-142.5 32.5zM393.5 150q34.5 41 34.5 107t-34.5 107t-93.5 41q-58 0 -92.5 -41t-34.5 -107t34.5 -107t92.5 -41
q59 0 93.5 41zM140 566l73 144h154l-131 -144h-96zM339 566l74 144h153l-130 -144h-97z" />
    <glyph glyph-name="OE" unicode="&#x152;" horiz-adv-x="1115" 
d="M1085 129v-129h-481v76q-77 -82 -212 -82q-105 0 -187 46t-127.5 127.5t-45.5 182.5t45.5 182.5t127.5 127.5t187 46q135 0 212 -82v76h470v-129h-320v-157h260v-123h-260v-162h331zM503.5 150.5q47.5 29.5 73.5 81.5t26 118t-26 118t-73.5 81.5t-109.5 29.5
q-63 0 -110.5 -29.5t-73 -81.5t-25.5 -118t25.5 -118t73 -81.5t110.5 -29.5q62 0 109.5 29.5z" />
    <glyph glyph-name="oe" unicode="&#x153;" horiz-adv-x="966" 
d="M560 225v-4q5 -57 36.5 -88.5t85.5 -31.5q43 0 71 18.5t37 54.5h140q-8 -51 -39 -92t-82 -64.5t-117 -23.5q-65 0 -116.5 20.5t-85.5 58.5q-34 -38 -83 -58.5t-108 -20.5q-81 0 -142 32.5t-94.5 92t-33.5 138.5t33.5 138.5t94.5 92t142 32.5q61 0 110.5 -20.5t83.5 -58.5
q32 38 77.5 58.5t101.5 20.5q78 0 137.5 -30.5t93.5 -86.5t34 -130q0 -27 -4 -48h-373zM600.5 388.5q-31.5 -26.5 -37.5 -71.5h233q-7 47 -38 72.5t-80 25.5q-46 0 -77.5 -26.5zM392.5 149.5q34.5 40.5 34.5 106.5q0 67 -34.5 108t-93.5 41q-58 0 -92 -41t-34 -107
q0 -67 33.5 -107.5t92.5 -40.5t93.5 40.5z" />
    <glyph glyph-name="Racute" unicode="&#x154;" horiz-adv-x="642" 
d="M345 700q76 0 134.5 -28.5t90.5 -81.5t32 -123q0 -67 -32 -118.5t-88 -78.5l138 -270h-166l-117 235h-127v-235h-150v700h285zM210 360h123q53 0 84.5 29t31.5 78q0 50 -31.5 79t-84.5 29h-123v-215zM245 755l73 141h161l-131 -141h-103z" />
    <glyph glyph-name="racute" unicode="&#x155;" horiz-adv-x="376" 
d="M362 514v-128h-56q-60 0 -88 -36t-28 -98v-252h-141v514h128l13 -77q23 38 57 57.5t91 19.5h24zM162 569l73 141h161l-131 -141h-103z" />
    <glyph glyph-name="Rcommaaccent" unicode="&#x156;" horiz-adv-x="642" 
d="M345 700q76 0 134.5 -28.5t90.5 -81.5t32 -123q0 -67 -32 -118.5t-88 -78.5l138 -270h-166l-117 235h-127v-235h-150v700h285zM210 360h123q53 0 84.5 29t31.5 78q0 50 -31.5 79t-84.5 29h-123v-215zM247 -48h137l-85 -147h-105z" />
    <glyph glyph-name="rcommaaccent" unicode="&#x157;" horiz-adv-x="376" 
d="M362 514v-128h-56q-60 0 -88 -36t-28 -98v-252h-141v514h128l13 -77q23 38 57 57.5t91 19.5h24zM48 -48h137l-85 -147h-105z" />
    <glyph glyph-name="Rcaron" unicode="&#x158;" horiz-adv-x="642" 
d="M345 700q76 0 134.5 -28.5t90.5 -81.5t32 -123q0 -67 -32 -118.5t-88 -78.5l138 -270h-166l-117 235h-127v-235h-150v700h285zM210 360h123q53 0 84.5 29t31.5 78q0 50 -31.5 79t-84.5 29h-123v-215zM294 837l62 59h129l-128 -142h-126l-128 142h130z" />
    <glyph glyph-name="rcaron" unicode="&#x159;" horiz-adv-x="376" 
d="M362 514v-128h-56q-60 0 -88 -36t-28 -98v-252h-141v514h128l13 -77q23 38 57 57.5t91 19.5h24zM211 651l62 59h129l-128 -142h-126l-128 142h130z" />
    <glyph glyph-name="Sacute" unicode="&#x15a;" horiz-adv-x="625" 
d="M179 228q4 -52 42.5 -83.5t102.5 -31.5q53 0 86.5 22.5t33.5 62.5q0 28 -18.5 44.5t-52 26t-103.5 23.5q-69 13 -116 33.5t-76.5 61t-29.5 107.5q0 61 33.5 109t93 75.5t134.5 27.5q77 0 138.5 -28.5t97 -78.5t36.5 -113h-147q-5 45 -38 72.5t-87 27.5q-50 0 -80 -21
t-30 -60q0 -28 18 -43.5t51 -25t102 -22.5q70 -13 118 -32.5t77.5 -59t29.5 -105.5q0 -64 -35 -114.5t-97.5 -79.5t-140.5 -29q-84 0 -149.5 30.5t-102.5 84.5t-38 121zM262 755l73 141h161l-131 -141h-103z" />
    <glyph glyph-name="sacute" unicode="&#x15b;" horiz-adv-x="540" 
d="M164 171q3 -34 33 -55t77 -21q45 0 71 14.5t26 41.5q0 20 -12 30t-34 14.5t-72 10.5q-68 9 -113 23t-72 44t-27 80t27.5 88.5t77.5 59.5t115 21q105 -1 169.5 -45t69.5 -122h-134q-3 29 -30.5 47.5t-70.5 18.5q-40 0 -64.5 -15t-24.5 -40q0 -18 13 -27t34 -13t70 -9
q104 -12 159.5 -44.5t55.5 -111.5q0 -50 -29.5 -88t-82 -58.5t-121.5 -20.5q-107 0 -174 47.5t-71 129.5h134zM212 569l73 141h161l-131 -141h-103z" />
    <glyph glyph-name="Scircumflex" unicode="&#x15c;" horiz-adv-x="625" 
d="M179 228q4 -52 42.5 -83.5t102.5 -31.5q53 0 86.5 22.5t33.5 62.5q0 28 -18.5 44.5t-52 26t-103.5 23.5q-69 13 -116 33.5t-76.5 61t-29.5 107.5q0 61 33.5 109t93 75.5t134.5 27.5q77 0 138.5 -28.5t97 -78.5t36.5 -113h-147q-5 45 -38 72.5t-87 27.5q-50 0 -80 -21
t-30 -60q0 -28 18 -43.5t51 -25t102 -22.5q70 -13 118 -32.5t77.5 -59t29.5 -105.5q0 -64 -35 -114.5t-97.5 -79.5t-140.5 -29q-84 0 -149.5 30.5t-102.5 84.5t-38 121zM311 813l-62 -59h-129l128 142h126l128 -142h-130z" />
    <glyph glyph-name="scircumflex" unicode="&#x15d;" horiz-adv-x="540" 
d="M164 171q3 -34 33 -55t77 -21q45 0 71 14.5t26 41.5q0 20 -12 30t-34 14.5t-72 10.5q-68 9 -113 23t-72 44t-27 80t27.5 88.5t77.5 59.5t115 21q105 -1 169.5 -45t69.5 -122h-134q-3 29 -30.5 47.5t-70.5 18.5q-40 0 -64.5 -15t-24.5 -40q0 -18 13 -27t34 -13t70 -9
q104 -12 159.5 -44.5t55.5 -111.5q0 -50 -29.5 -88t-82 -58.5t-121.5 -20.5q-107 0 -174 47.5t-71 129.5h134zM261 627l-62 -59h-129l128 142h126l128 -142h-130z" />
    <glyph glyph-name="Scedilla" unicode="&#x15e;" horiz-adv-x="625" 
d="M488 381.5q48 -19.5 77.5 -59t29.5 -105.5q0 -60 -31 -108.5t-86 -78.5t-125 -35l-7 -25h17q42 0 66.5 -20.5t24.5 -56.5q0 -43 -29.5 -68t-79.5 -25h-119v69h92q29 0 29 25q0 10 -8 16t-21 6h-59l20 80q-73 8 -128.5 40t-86.5 82.5t-32 111.5l147 -2q4 -52 42.5 -83.5
t102.5 -31.5q53 0 86.5 22.5t33.5 62.5q0 28 -18.5 44.5t-52 26t-103.5 23.5q-69 13 -116 33.5t-76.5 61t-29.5 107.5q0 61 33.5 109t93 75.5t134.5 27.5q77 0 138.5 -28.5t97 -78.5t36.5 -113h-147q-5 45 -38 72.5t-87 27.5q-50 0 -80 -21t-30 -60q0 -28 18 -43.5t51 -25
t102 -22.5q70 -13 118 -32.5z" />
    <glyph glyph-name="scedilla" unicode="&#x15f;" horiz-adv-x="540" 
d="M454 47.5q-54 -44.5 -144 -52.5l-7 -26h17q42 0 66.5 -20.5t24.5 -56.5q0 -43 -29.5 -68t-79.5 -25h-119v69h92q29 0 29 25q0 10 -8 16t-21 6h-59l20 81q-92 8 -147 54.5t-59 120.5h134q3 -34 33 -55t77 -21q45 0 71 14.5t26 41.5q0 20 -12 30t-34 14.5t-72 10.5
q-68 9 -113 23t-72 44t-27 80t27.5 88.5t77.5 59.5t115 21q105 -1 169.5 -45t69.5 -122h-134q-3 29 -30.5 47.5t-70.5 18.5q-40 0 -64.5 -15t-24.5 -40q0 -18 13 -27t34 -13t70 -9q104 -12 159.5 -44.5t55.5 -111.5q0 -69 -54 -113.5z" />
    <glyph glyph-name="Scaron" unicode="&#x160;" horiz-adv-x="625" 
d="M179 228q4 -52 42.5 -83.5t102.5 -31.5q53 0 86.5 22.5t33.5 62.5q0 28 -18.5 44.5t-52 26t-103.5 23.5q-69 13 -116 33.5t-76.5 61t-29.5 107.5q0 61 33.5 109t93 75.5t134.5 27.5q77 0 138.5 -28.5t97 -78.5t36.5 -113h-147q-5 45 -38 72.5t-87 27.5q-50 0 -80 -21
t-30 -60q0 -28 18 -43.5t51 -25t102 -22.5q70 -13 118 -32.5t77.5 -59t29.5 -105.5q0 -64 -35 -114.5t-97.5 -79.5t-140.5 -29q-84 0 -149.5 30.5t-102.5 84.5t-38 121zM311 837l62 59h129l-128 -142h-126l-128 142h130z" />
    <glyph glyph-name="scaron" unicode="&#x161;" horiz-adv-x="540" 
d="M164 171q3 -34 33 -55t77 -21q45 0 71 14.5t26 41.5q0 20 -12 30t-34 14.5t-72 10.5q-68 9 -113 23t-72 44t-27 80t27.5 88.5t77.5 59.5t115 21q105 -1 169.5 -45t69.5 -122h-134q-3 29 -30.5 47.5t-70.5 18.5q-40 0 -64.5 -15t-24.5 -40q0 -18 13 -27t34 -13t70 -9
q104 -12 159.5 -44.5t55.5 -111.5q0 -50 -29.5 -88t-82 -58.5t-121.5 -20.5q-107 0 -174 47.5t-71 129.5h134zM261 651l62 59h129l-128 -142h-126l-128 142h130z" />
    <glyph glyph-name="uni0162" unicode="&#x162;" horiz-adv-x="598" 
d="M22 700h554v-129h-202v-571h-150v571h-202v129zM227 -48h137l-85 -147h-105z" />
    <glyph glyph-name="uni0163" unicode="&#x163;" horiz-adv-x="356" 
d="M82 395h-85v119h85v144h141v-144h117v-119h-117v-225q0 -27 11.5 -39t38.5 -12h73v-119h-117q-147 0 -147 147v248zM145 -48h137l-85 -147h-105z" />
    <glyph glyph-name="Tcaron" unicode="&#x164;" horiz-adv-x="598" 
d="M22 700h554v-129h-202v-571h-150v571h-202v129zM303 837l62 59h129l-128 -142h-126l-128 142h130z" />
    <glyph glyph-name="tcaron" unicode="&#x165;" horiz-adv-x="369" 
d="M82 395h-85v119h85v144h141v-144h117v-119h-117v-225q0 -27 11.5 -39t38.5 -12h73v-119h-117q-147 0 -147 147v248zM294 705h132l-68 -148h-99z" />
    <glyph glyph-name="Tbar" unicode="&#x166;" horiz-adv-x="598" 
d="M576 571h-202v-181h110v-104h-110v-286h-150v286h-109v104h109v181h-202v129h554v-129z" />
    <glyph glyph-name="tbar" unicode="&#x167;" horiz-adv-x="376" 
d="M353 119v-119h-117q-147 0 -147 147v73h-85v103h85v72h-85v119h85v144h141v-144h117v-119h-117v-72h117v-103h-117v-50q0 -27 11.5 -39t38.5 -12h73z" />
    <glyph glyph-name="Utilde" unicode="&#x168;" horiz-adv-x="685" 
d="M205 700v-406q0 -85 33 -128t104 -43t104.5 43t33.5 128v406h150v-398q0 -150 -73.5 -229t-214.5 -79t-214 79t-73 229v398h150zM277.5 797.5q-9.5 -11.5 -9.5 -27.5h-82v20q0 46 26.5 76.5t68.5 30.5q21 0 35 -6.5t30 -18.5q11 -9 19.5 -13.5t19.5 -4.5q15 0 24 11t9 28
h82v-21q0 -46 -27 -76.5t-68 -30.5q-22 0 -36.5 7t-30.5 20q-12 9 -19.5 13t-16.5 4q-15 0 -24.5 -11.5z" />
    <glyph glyph-name="utilde" unicode="&#x169;" horiz-adv-x="582" 
d="M533 514v-514h-125l-13 62q-27 -32 -63 -50t-88 -18q-90 0 -147 55.5t-57 185.5v279h141v-262q0 -70 24.5 -105.5t75.5 -35.5q53 0 82 39.5t29 110.5v253h141zM221.5 611.5q-9.5 -11.5 -9.5 -27.5h-82v20q0 46 26.5 76.5t68.5 30.5q21 0 35 -6.5t30 -18.5
q11 -9 19.5 -13.5t19.5 -4.5q15 0 24 11t9 28h82v-21q0 -46 -27 -76.5t-68 -30.5q-22 0 -36.5 7t-30.5 20q-12 9 -19.5 13t-16.5 4q-15 0 -24.5 -11.5z" />
    <glyph glyph-name="Umacron" unicode="&#x16a;" horiz-adv-x="685" 
d="M205 700v-406q0 -85 33 -128t104 -43t104.5 43t33.5 128v406h150v-398q0 -150 -73.5 -229t-214.5 -79t-214 79t-73 229v398h150zM188 785v100h311v-100h-311z" />
    <glyph glyph-name="umacron" unicode="&#x16b;" horiz-adv-x="582" 
d="M533 514v-514h-125l-13 62q-27 -32 -63 -50t-88 -18q-90 0 -147 55.5t-57 185.5v279h141v-262q0 -70 24.5 -105.5t75.5 -35.5q53 0 82 39.5t29 110.5v253h141zM132 599v100h311v-100h-311z" />
    <glyph glyph-name="Ubreve" unicode="&#x16c;" horiz-adv-x="685" 
d="M205 700v-406q0 -85 33 -128t104 -43t104.5 43t33.5 128v406h150v-398q0 -150 -73.5 -229t-214.5 -79t-214 79t-73 229v398h150zM288 896q0 -26 15 -41t40 -15q24 0 39.5 15.5t15.5 40.5h101q-3 -66 -46.5 -106.5t-112.5 -40.5q-66 0 -108 40.5t-45 106.5h101z" />
    <glyph glyph-name="ubreve" unicode="&#x16d;" horiz-adv-x="582" 
d="M533 514v-514h-125l-13 62q-27 -32 -63 -50t-88 -18q-90 0 -147 55.5t-57 185.5v279h141v-262q0 -70 24.5 -105.5t75.5 -35.5q53 0 82 39.5t29 110.5v253h141zM232 710q0 -26 15 -41t40 -15q24 0 39.5 15.5t15.5 40.5h101q-3 -66 -46.5 -106.5t-112.5 -40.5
q-66 0 -108 40.5t-45 106.5h101z" />
    <glyph glyph-name="Uring" unicode="&#x16e;" horiz-adv-x="685" 
d="M205 700v-406q0 -85 33 -128t104 -43t104.5 43t33.5 128v406h150v-398q0 -150 -73.5 -229t-214.5 -79t-214 79t-73 229v398h150zM250.5 878.5q37.5 35.5 92.5 35.5t92.5 -35.5t37.5 -85.5q0 -51 -37.5 -86t-92.5 -35t-92.5 35t-37.5 86q0 50 37.5 85.5zM384.5 834.5
q-16.5 16.5 -41.5 16.5t-41.5 -16.5t-16.5 -41.5t16.5 -42t41.5 -17t41.5 17t16.5 42t-16.5 41.5z" />
    <glyph glyph-name="uring" unicode="&#x16f;" horiz-adv-x="582" 
d="M533 514v-514h-125l-13 62q-27 -32 -63 -50t-88 -18q-90 0 -147 55.5t-57 185.5v279h141v-262q0 -70 24.5 -105.5t75.5 -35.5q53 0 82 39.5t29 110.5v253h141zM194.5 759.5q37.5 35.5 92.5 35.5t92.5 -35.5t37.5 -85.5q0 -51 -37.5 -86t-92.5 -35t-92.5 35t-37.5 86
q0 50 37.5 85.5zM328.5 715.5q-16.5 16.5 -41.5 16.5t-41.5 -16.5t-16.5 -41.5t16.5 -42t41.5 -17t41.5 17t16.5 42t-16.5 41.5z" />
    <glyph glyph-name="Uhungarumlaut" unicode="&#x170;" horiz-adv-x="685" 
d="M205 700v-406q0 -85 33 -128t104 -43t104.5 43t33.5 128v406h150v-398q0 -150 -73.5 -229t-214.5 -79t-214 79t-73 229v398h150zM183 752l73 144h154l-131 -144h-96zM382 752l74 144h153l-130 -144h-97z" />
    <glyph glyph-name="uhungarumlaut" unicode="&#x171;" horiz-adv-x="582" 
d="M533 514v-514h-125l-13 62q-27 -32 -63 -50t-88 -18q-90 0 -147 55.5t-57 185.5v279h141v-262q0 -70 24.5 -105.5t75.5 -35.5q53 0 82 39.5t29 110.5v253h141zM127 566l73 144h154l-131 -144h-96zM326 566l74 144h153l-130 -144h-97z" />
    <glyph glyph-name="Uogonek" unicode="&#x172;" horiz-adv-x="685" 
d="M630 700v-398q0 -131 -56 -208t-165 -95q-47 -21 -70 -40t-23 -39q0 -26 33 -26h64v-94h-90q-51 0 -85 26.5t-34 70.5q0 57 58 105q-102 20 -154.5 96.5t-52.5 203.5v398h150v-406q0 -85 33 -128t104 -43t104.5 43t33.5 128v406h150z" />
    <glyph glyph-name="uogonek" unicode="&#x173;" horiz-adv-x="582" 
d="M535 -106v-94h-90q-51 0 -85 26.5t-34 70.5q0 36 21 65t58 55l-10 45q-27 -32 -63 -50t-88 -18q-90 0 -147 55.5t-57 185.5v279h141v-262q0 -70 24.5 -105.5t75.5 -35.5q53 0 82 39.5t29 110.5v253h141v-514q-47 -21 -71 -40.5t-24 -39.5q0 -26 33 -26h64z" />
    <glyph glyph-name="Wcircumflex" unicode="&#x174;" horiz-adv-x="991" 
d="M9 700l155 1l129 -512l137 511h135l133 -511l132 511h152l-194 -700h-173l-121 465l-118 -465h-173zM493 813l-62 -59h-129l128 142h126l128 -142h-130z" />
    <glyph glyph-name="wcircumflex" unicode="&#x175;" horiz-adv-x="819" 
d="M0 514h149l103 -362l97 362h127l94 -363l105 363h144l-169 -514h-150l-90 310l-92 -310h-150zM412 627l-62 -59h-129l128 142h126l128 -142h-130z" />
    <glyph glyph-name="Ycircumflex" unicode="&#x176;" horiz-adv-x="664" 
d="M0 700h175l157 -287l165 287h167l-257 -440v-260h-150v260zM336 813l-62 -59h-129l128 142h126l128 -142h-130z" />
    <glyph glyph-name="ycircumflex" unicode="&#x177;" horiz-adv-x="546" 
d="M149 514l125 -369l122 369h151l-228 -587q-18 -47 -34 -73.5t-40.5 -40t-63.5 -13.5h-137v119h78q27 0 39 9t23 35l13 34l-198 517h150zM271 627l-62 -59h-129l128 142h126l128 -142h-130z" />
    <glyph glyph-name="Ydieresis" unicode="&#x178;" horiz-adv-x="664" 
d="M0 700h175l157 -287l165 287h167l-257 -440v-260h-150v260zM177 887q22 21 54 21t53.5 -21t21.5 -52t-21.5 -52t-53.5 -21t-54 21t-22 52t22 52zM387.5 887q21.5 21 53.5 21t54 -21t22 -52t-22 -52t-54 -21t-53.5 21t-21.5 52t21.5 52z" />
    <glyph glyph-name="Zacute" unicode="&#x179;" horiz-adv-x="628" 
d="M36 700h556v-99l-359 -473h368v-128h-574v99l359 473h-350v128zM267 755l73 141h161l-131 -141h-103z" />
    <glyph glyph-name="zacute" unicode="&#x17a;" horiz-adv-x="503" 
d="M34 514h435v-96l-257 -299h269v-119h-459v96l257 299h-245v119zM201 569l73 141h161l-131 -141h-103z" />
    <glyph glyph-name="Zdotaccent" unicode="&#x17b;" horiz-adv-x="628" 
d="M36 700h556v-99l-359 -473h368v-128h-574v99l359 473h-350v128zM258 901.5q23 22.5 58 22.5t58 -22.5t23 -56.5t-23 -56.5t-58 -22.5t-58 22.5t-23 56.5t23 56.5z" />
    <glyph glyph-name="zdotaccent" unicode="&#x17c;" horiz-adv-x="503" 
d="M34 514h435v-96l-257 -299h269v-119h-459v96l257 299h-245v119zM192 715.5q23 22.5 58 22.5t58 -22.5t23 -56.5t-23 -56.5t-58 -22.5t-58 22.5t-23 56.5t23 56.5z" />
    <glyph glyph-name="Zcaron" unicode="&#x17d;" horiz-adv-x="628" 
d="M36 700h556v-99l-359 -473h368v-128h-574v99l359 473h-350v128zM316 837l62 59h129l-128 -142h-126l-128 142h130z" />
    <glyph glyph-name="zcaron" unicode="&#x17e;" horiz-adv-x="503" 
d="M34 514h435v-96l-257 -299h269v-119h-459v96l257 299h-245v119zM250 651l62 59h129l-128 -142h-126l-128 142h130z" />
    <glyph glyph-name="florin" unicode="&#x192;" horiz-adv-x="481" 
d="M332 535l-13 -152h108v-104h-117l-22 -248q-6 -65 -47 -101t-112 -36h-115v120h88q44 0 47 45l19 220h-102v104h111l16 180q6 65 47 101t112 36h115v-120h-87q-45 0 -48 -45z" />
    <glyph glyph-name="AEacute" unicode="&#x1fc;" horiz-adv-x="996" 
d="M908 896l-131 -141h-103l73 141h161zM634 129h331v-129h-481v148h-246l-89 -148h-155l410 700h550v-129h-320v-157h260v-123h-260v-162zM307 269h177v304z" />
    <glyph glyph-name="aeacute" unicode="&#x1fd;" horiz-adv-x="910" 
d="M635 700l-131 -141h-103l73 141h161zM505 225v-4q5 -57 35.5 -88.5t85.5 -31.5q42 0 70.5 18.5t38.5 54.5h139q-8 -51 -39 -92t-82 -64.5t-117 -23.5q-70 0 -122.5 24.5t-84.5 70.5q-35 -48 -84.5 -71.5t-117.5 -23.5q-86 0 -142 40t-56 111q0 79 60.5 121t175.5 42h102
v33q0 35 -26 55.5t-70 20.5q-39 0 -64 -17t-30 -46h-136q7 79 70 122.5t167 43.5q57 0 105 -18t74 -52q31 34 73 52t92 18q76 0 134.5 -30.5t91.5 -86.5t33 -130q0 -27 -4 -48h-372zM545.5 388.5q-31.5 -26.5 -37.5 -71.5h232q-7 47 -38 72.5t-79 25.5q-46 0 -77.5 -26.5z
M367 218h-97q-47 0 -73 -16t-26 -47q0 -27 20.5 -43t55.5 -16q55 0 87.5 30t32.5 80v12z" />
    <glyph glyph-name="Scommaaccent" unicode="&#x218;" horiz-adv-x="625" 
d="M179 228q4 -52 42.5 -83.5t102.5 -31.5q53 0 86.5 22.5t33.5 62.5q0 28 -18.5 44.5t-52 26t-103.5 23.5q-69 13 -116 33.5t-76.5 61t-29.5 107.5q0 61 33.5 109t93 75.5t134.5 27.5q77 0 138.5 -28.5t97 -78.5t36.5 -113h-147q-5 45 -38 72.5t-87 27.5q-50 0 -80 -21
t-30 -60q0 -28 18 -43.5t51 -25t102 -22.5q70 -13 118 -32.5t77.5 -59t29.5 -105.5q0 -64 -35 -114.5t-97.5 -79.5t-140.5 -29q-84 0 -149.5 30.5t-102.5 84.5t-38 121zM246 -48h137l-85 -147h-105z" />
    <glyph glyph-name="scommaaccent" unicode="&#x219;" horiz-adv-x="540" 
d="M164 171q3 -34 33 -55t77 -21q45 0 71 14.5t26 41.5q0 20 -12 30t-34 14.5t-72 10.5q-68 9 -113 23t-72 44t-27 80t27.5 88.5t77.5 59.5t115 21q105 -1 169.5 -45t69.5 -122h-134q-3 29 -30.5 47.5t-70.5 18.5q-40 0 -64.5 -15t-24.5 -40q0 -18 13 -27t34 -13t70 -9
q104 -12 159.5 -44.5t55.5 -111.5q0 -50 -29.5 -88t-82 -58.5t-121.5 -20.5q-107 0 -174 47.5t-71 129.5h134zM203 -49h137l-85 -147h-105z" />
    <glyph glyph-name="uni021A" unicode="&#x21a;" horiz-adv-x="598" 
d="M22 700h554v-129h-202v-571h-150v571h-202v129zM227 -48h137l-85 -147h-105z" />
    <glyph glyph-name="uni021B" unicode="&#x21b;" horiz-adv-x="356" 
d="M82 395h-85v119h85v144h141v-144h117v-119h-117v-225q0 -27 11.5 -39t38.5 -12h73v-119h-117q-147 0 -147 147v248zM145 -48h137l-85 -147h-105z" />
    <glyph glyph-name="uni0237" unicode="&#x237;" horiz-adv-x="244" 
d="M3 -81q26 0 38.5 13.5t12.5 43.5v538h141v-558q0 -73 -38 -114.5t-110 -41.5h-93v119h49z" />
    <glyph glyph-name="uni02BC" unicode="&#x2bc;" horiz-adv-x="378" 
d="M145 700h132l-68 -148h-99z" />
    <glyph glyph-name="circumflex" unicode="&#x2c6;" horiz-adv-x="400" 
d="M200 617l-62 -59h-129l128 142h126l128 -142h-130z" />
    <glyph glyph-name="caron" unicode="&#x2c7;" horiz-adv-x="400" 
d="M200 641l62 59h129l-128 -142h-126l-128 142h130z" />
    <glyph glyph-name="breve" unicode="&#x2d8;" horiz-adv-x="400" 
d="M145 700q0 -26 15 -41t40 -15q24 0 39.5 15.5t15.5 40.5h101q-3 -66 -46.5 -106.5t-112.5 -40.5q-66 0 -108 40.5t-45 106.5h101z" />
    <glyph glyph-name="dotaccent" unicode="&#x2d9;" horiz-adv-x="400" 
d="M142 705.5q23 22.5 58 22.5t58 -22.5t23 -56.5t-23 -56.5t-58 -22.5t-58 22.5t-23 56.5t23 56.5z" />
    <glyph glyph-name="ring" unicode="&#x2da;" horiz-adv-x="400" 
d="M107.5 749.5q37.5 35.5 92.5 35.5t92.5 -35.5t37.5 -85.5q0 -51 -37.5 -86t-92.5 -35t-92.5 35t-37.5 86q0 50 37.5 85.5zM241.5 705.5q-16.5 16.5 -41.5 16.5t-41.5 -16.5t-16.5 -41.5t16.5 -42t41.5 -17t41.5 17t16.5 42t-16.5 41.5z" />
    <glyph glyph-name="ogonek" unicode="&#x2db;" horiz-adv-x="400" 
d="M15.5 -35q22.5 30 63.5 57l121 -22q-47 -21 -71 -40.5t-24 -39.5q0 -26 33 -26h64v-94h-90q-51 0 -85 26.5t-34 70.5q0 38 22.5 68z" />
    <glyph glyph-name="tilde" unicode="&#x2dc;" horiz-adv-x="400" 
d="M134.5 601.5q-9.5 -11.5 -9.5 -27.5h-82v20q0 46 26.5 76.5t68.5 30.5q21 0 35 -6.5t30 -18.5q11 -9 19.5 -13.5t19.5 -4.5q15 0 24 11t9 28h82v-21q0 -46 -27 -76.5t-68 -30.5q-22 0 -36.5 7t-30.5 20q-12 9 -19.5 13t-16.5 4q-15 0 -24.5 -11.5z" />
    <glyph glyph-name="hungarumlaut" unicode="&#x2dd;" horiz-adv-x="401" 
d="M40 556l73 144h154l-131 -144h-96zM239 556l74 144h153l-130 -144h-97z" />
    <glyph glyph-name="gravecomb" unicode="&#x300;" horiz-adv-x="0" 
d="M-381 700h161l70 -144h-106z" />
    <glyph glyph-name="acutecomb" unicode="&#x301;" horiz-adv-x="0" 
d="M-249 559l73 141h161l-131 -141h-103z" />
    <glyph glyph-name="uni0302" unicode="&#x302;" horiz-adv-x="0" 
d="M-200 617l-62 -59h-129l128 142h126l128 -142h-130z" />
    <glyph glyph-name="tildecomb" unicode="&#x303;" horiz-adv-x="0" 
d="M-265.5 601.5q-9.5 -11.5 -9.5 -27.5h-82v20q0 46 26.5 76.5t68.5 30.5q21 0 35 -6.5t30 -18.5q11 -9 19.5 -13.5t19.5 -4.5q15 0 24 11t9 28h82v-21q0 -46 -27 -76.5t-68 -30.5q-22 0 -36.5 7t-30.5 20q-12 9 -19.5 13t-16.5 4q-15 0 -24.5 -11.5z" />
    <glyph glyph-name="uni0304" unicode="&#x304;" horiz-adv-x="0" 
d="M-355 589v100h311v-100h-311z" />
    <glyph glyph-name="uni0306" unicode="&#x306;" horiz-adv-x="0" 
d="M-255 700q0 -26 15 -41t40 -15q24 0 39.5 15.5t15.5 40.5h101q-3 -66 -46.5 -106.5t-112.5 -40.5q-66 0 -108 40.5t-45 106.5h101z" />
    <glyph glyph-name="uni0307" unicode="&#x307;" horiz-adv-x="0" 
d="M-258 705.5q23 22.5 58 22.5t58 -22.5t23 -56.5t-23 -56.5t-58 -22.5t-58 22.5t-23 56.5t23 56.5z" />
    <glyph glyph-name="uni0308" unicode="&#x308;" horiz-adv-x="0" 
d="M-359 691q22 21 54 21t53.5 -21t21.5 -52t-21.5 -52t-53.5 -21t-54 21t-22 52t22 52zM-148.5 691q21.5 21 53.5 21t54 -21t22 -52t-22 -52t-54 -21t-53.5 21t-21.5 52t21.5 52z" />
    <glyph glyph-name="uni030A" unicode="&#x30a;" horiz-adv-x="0" 
d="M-292.5 749.5q37.5 35.5 92.5 35.5t92.5 -35.5t37.5 -85.5q0 -51 -37.5 -86t-92.5 -35t-92.5 35t-37.5 86q0 50 37.5 85.5zM-158.5 705.5q-16.5 16.5 -41.5 16.5t-41.5 -16.5t-16.5 -41.5t16.5 -42t41.5 -17t41.5 17t16.5 42t-16.5 41.5z" />
    <glyph glyph-name="uni030B" unicode="&#x30b;" horiz-adv-x="0" 
d="M-360 556l73 144h154l-131 -144h-96zM-161 556l74 144h153l-130 -144h-97z" />
    <glyph glyph-name="uni030C" unicode="&#x30c;" horiz-adv-x="0" 
d="M-200 641l62 59h129l-128 -142h-126l-128 142h130z" />
    <glyph glyph-name="uni0312" unicode="&#x312;" horiz-adv-x="0" 
d="M-139 554h-137l83 146h107z" />
    <glyph glyph-name="uni0326" unicode="&#x326;" horiz-adv-x="0" 
d="M-272 -48h137l-85 -147h-105z" />
    <glyph glyph-name="uni0327" unicode="&#x327;" horiz-adv-x="0" 
d="M-156 32l-16 -62h17q42 0 66.5 -20.5t24.5 -56.5q0 -43 -29.5 -68t-79.5 -25h-119v69h92q29 0 29 25q0 10 -8 16t-21 6h-59l29 116h74z" />
    <glyph glyph-name="uni0328" unicode="&#x328;" horiz-adv-x="0" 
d="M-384.5 -35q22.5 30 63.5 57l121 -22q-47 -21 -71 -40.5t-24 -39.5q0 -26 33 -26h64v-94h-90q-51 0 -85 26.5t-34 70.5q0 38 22.5 68z" />
    <glyph glyph-name="pi" unicode="&#x3c0;" horiz-adv-x="622" 
d="M610 514v-120h-66v-394h-141v394h-184v-394h-141v394h-66v120h598z" />
    <glyph glyph-name="uni0E3F" unicode="&#xe3f;" horiz-adv-x="657" 
d="M550.5 54q-68.5 -53 -193.5 -54v-97h-79v97h-218v700h218v103h79v-103q115 -4 176 -52t61 -132q0 -65 -36 -105t-102 -52q77 -10 120 -50t43 -112q0 -90 -68.5 -143zM210 582v-170h68v170h-68zM424 557.5q-23 22.5 -67 24.5v-170q44 2 67 24.5t23 60.5t-23 60.5zM210 119
h68v177h-68v-177zM436.5 143.5q28.5 23.5 28.5 62.5q0 41 -28.5 64.5t-79.5 25.5v-177q51 1 79.5 24.5z" />
    <glyph glyph-name="Wgrave" unicode="&#x1e80;" horiz-adv-x="991" 
d="M9 700l155 1l129 -512l137 511h135l133 -511l132 511h152l-194 -700h-173l-121 465l-118 -465h-173zM312 896h161l70 -144h-106z" />
    <glyph glyph-name="wgrave" unicode="&#x1e81;" horiz-adv-x="819" 
d="M0 514h149l103 -362l97 362h127l94 -363l105 363h144l-169 -514h-150l-90 310l-92 -310h-150zM231 710h161l70 -144h-106z" />
    <glyph glyph-name="Wacute" unicode="&#x1e82;" horiz-adv-x="991" 
d="M9 700l155 1l129 -512l137 511h135l133 -511l132 511h152l-194 -700h-173l-121 465l-118 -465h-173zM444 755l73 141h161l-131 -141h-103z" />
    <glyph glyph-name="wacute" unicode="&#x1e83;" horiz-adv-x="819" 
d="M0 514h149l103 -362l97 362h127l94 -363l105 363h144l-169 -514h-150l-90 310l-92 -310h-150zM363 569l73 141h161l-131 -141h-103z" />
    <glyph glyph-name="Wdieresis" unicode="&#x1e84;" horiz-adv-x="991" 
d="M9 700l155 1l129 -512l137 511h135l133 -511l132 511h152l-194 -700h-173l-121 465l-118 -465h-173zM334 887q22 21 54 21t53.5 -21t21.5 -52t-21.5 -52t-53.5 -21t-54 21t-22 52t22 52zM544.5 887q21.5 21 53.5 21t54 -21t22 -52t-22 -52t-54 -21t-53.5 21t-21.5 52
t21.5 52z" />
    <glyph glyph-name="wdieresis" unicode="&#x1e85;" horiz-adv-x="819" 
d="M0 514h149l103 -362l97 362h127l94 -363l105 363h144l-169 -514h-150l-90 310l-92 -310h-150zM253 701q22 21 54 21t53.5 -21t21.5 -52t-21.5 -52t-53.5 -21t-54 21t-22 52t22 52zM463.5 701q21.5 21 53.5 21t54 -21t22 -52t-22 -52t-54 -21t-53.5 21t-21.5 52t21.5 52z
" />
    <glyph glyph-name="Ygrave" unicode="&#x1ef2;" horiz-adv-x="664" 
d="M0 700h175l157 -287l165 287h167l-257 -440v-260h-150v260zM155 896h161l70 -144h-106z" />
    <glyph glyph-name="ygrave" unicode="&#x1ef3;" horiz-adv-x="546" 
d="M149 514l125 -369l122 369h151l-228 -587q-18 -47 -34 -73.5t-40.5 -40t-63.5 -13.5h-137v119h78q27 0 39 9t23 35l13 34l-198 517h150zM90 710h161l70 -144h-106z" />
    <glyph glyph-name="endash" unicode="&#x2013;" 
d="M40 227v114h520v-114h-520z" />
    <glyph glyph-name="emdash" unicode="&#x2014;" horiz-adv-x="925" 
d="M40 342h845v-114h-845v114z" />
    <glyph glyph-name="quoteleft" unicode="&#x2018;" horiz-adv-x="248" 
d="M58 439.5q-29 36.5 -29 94.5q0 83 50 127t137 45v-73q-46 -1 -70.5 -20t-24.5 -48q0 -10 1 -14q16 8 32 8q29 0 48.5 -19.5t19.5 -56.5q0 -33 -25.5 -56.5t-62.5 -23.5q-47 0 -76 36.5z" />
    <glyph glyph-name="quoteright" unicode="&#x2019;" horiz-adv-x="248" 
d="M190 669.5q29 -36.5 29 -94.5q0 -83 -50 -127t-137 -45v73q46 1 70.5 20t24.5 48q0 10 -1 14q-16 -8 -32 -8q-29 0 -48.5 19.5t-19.5 56.5q0 33 25.5 56.5t62.5 23.5q47 0 76 -36.5z" />
    <glyph glyph-name="quotesinglbase" unicode="&#x201a;" horiz-adv-x="248" 
d="M190 121.5q29 -36.5 29 -94.5q0 -83 -50 -127t-137 -45v73q46 1 70.5 20t24.5 48q0 10 -1 14q-16 -8 -32 -8q-29 0 -48.5 19.5t-19.5 56.5q0 33 25.5 56.5t62.5 23.5q47 0 76 -36.5z" />
    <glyph glyph-name="quotedblleft" unicode="&#x201c;" horiz-adv-x="464" 
d="M58 439.5q-29 36.5 -29 94.5q0 83 50 127t137 45v-73q-46 -1 -70.5 -20t-24.5 -48q0 -10 1 -14q16 8 32 8q29 0 48.5 -19.5t19.5 -56.5q0 -33 -25.5 -56.5t-62.5 -23.5q-47 0 -76 36.5zM275 439.5q-29 36.5 -29 94.5q0 83 50 127t137 45v-73q-46 -1 -70.5 -20t-24.5 -48
q0 -10 1 -14q16 8 32 8q29 0 48.5 -19.5t19.5 -56.5q0 -33 -25.5 -56.5t-62.5 -23.5q-47 0 -76 36.5z" />
    <glyph glyph-name="quotedblright" unicode="&#x201d;" horiz-adv-x="464" 
d="M190 669.5q29 -36.5 29 -94.5q0 -83 -50 -127t-137 -45v73q46 1 70.5 20t24.5 48q0 10 -1 14q-16 -8 -32 -8q-29 0 -48.5 19.5t-19.5 56.5q0 33 25.5 56.5t62.5 23.5q47 0 76 -36.5zM407 669.5q29 -36.5 29 -94.5q0 -83 -50 -127t-137 -45v73q46 1 70.5 20t24.5 48
q0 10 -1 14q-16 -8 -32 -8q-29 0 -48.5 19.5t-19.5 56.5q0 33 25.5 56.5t62.5 23.5q47 0 76 -36.5z" />
    <glyph glyph-name="quotedblbase" unicode="&#x201e;" horiz-adv-x="464" 
d="M190 121.5q29 -36.5 29 -94.5q0 -83 -50 -127t-137 -45v73q46 1 70.5 20t24.5 48q0 10 -1 14q-16 -8 -32 -8q-29 0 -48.5 19.5t-19.5 56.5q0 33 25.5 56.5t62.5 23.5q47 0 76 -36.5zM407 121.5q29 -36.5 29 -94.5q0 -83 -50 -127t-137 -45v73q46 1 70.5 20t24.5 48
q0 10 -1 14q-16 -8 -32 -8q-29 0 -48.5 19.5t-19.5 56.5q0 33 25.5 56.5t62.5 23.5q47 0 76 -36.5z" />
    <glyph glyph-name="dagger" unicode="&#x2020;" horiz-adv-x="519" 
d="M494 507v-115h-172v-392h-125v392h-172v115h172v193h125v-193h172z" />
    <glyph glyph-name="daggerdbl" unicode="&#x2021;" horiz-adv-x="567" 
d="M526 430h-179v-160h179v-114h-179v-156h-126v156h-180v114h180v160h-180v114h180v156h126v-156h179v-114z" />
    <glyph glyph-name="bullet" unicode="&#x2022;" horiz-adv-x="450" 
d="M80.5 418.5q21.5 36.5 59.5 57t85 20.5t85 -20.5t59.5 -57t21.5 -83.5t-21.5 -84t-59.5 -57.5t-85 -20.5t-85 20.5t-59.5 57.5t-21.5 84t21.5 83.5z" />
    <glyph glyph-name="ellipsis" unicode="&#x2026;" horiz-adv-x="720" 
d="M63 137.5q24 23.5 61 23.5q36 0 60.5 -24t24.5 -60t-24.5 -59.5t-60.5 -23.5q-37 0 -61 23.5t-24 59.5q0 37 24 60.5zM299 137.5q24 23.5 61 23.5q36 0 60.5 -24t24.5 -60t-24.5 -59.5t-60.5 -23.5q-37 0 -61 23.5t-24 59.5q0 37 24 60.5zM535 137.5q24 23.5 61 23.5
q36 0 60.5 -24t24.5 -60t-24.5 -59.5t-60.5 -23.5q-37 0 -61 23.5t-24 59.5q0 37 24 60.5z" />
    <glyph glyph-name="perthousand" unicode="&#x2030;" horiz-adv-x="1336" 
d="M69 621.5q24 39.5 65.5 62t93.5 22.5t94 -22.5t65.5 -62t23.5 -88.5t-23.5 -88.5t-65.5 -62t-94 -22.5t-93.5 22.5t-65.5 62t-24 88.5t24 88.5zM158 0l480 700h139l-480 -700h-139zM278 584q-20 20 -50 20q-29 0 -49 -20t-20 -51t20 -51t49 -20q30 0 50 20t20 51t-20 51z
M546.5 255.5q23.5 39.5 65.5 62t94 22.5t93.5 -22.5t65.5 -62t24 -88.5t-24 -88.5t-65.5 -62t-93.5 -22.5t-94 22.5t-65.5 62t-23.5 88.5t23.5 88.5zM949 255.5q24 39.5 65.5 62t93.5 22.5t94 -22.5t65.5 -62t23.5 -88.5t-23.5 -88.5t-65.5 -62t-94 -22.5t-93.5 22.5
t-65.5 62t-24 88.5t24 88.5zM755 217.5q-20 20.5 -49 20.5q-30 0 -50 -20.5t-20 -50.5q0 -31 20 -51t50 -20q29 0 49 20t20 51q0 30 -20 50.5zM1158 217.5q-20 20.5 -50 20.5q-29 0 -49 -20.5t-20 -50.5q0 -31 20 -51t49 -20q30 0 50 20t20 51q0 30 -20 50.5z" />
    <glyph glyph-name="guilsinglleft" unicode="&#x2039;" horiz-adv-x="357" 
d="M324 514l-150 -257l150 -257h-142l-152 257l152 257h142z" />
    <glyph glyph-name="guilsinglright" unicode="&#x203a;" horiz-adv-x="357" 
d="M33 514h142l152 -257l-152 -257h-142l150 257z" />
    <glyph glyph-name="uni2042" unicode="&#x2042;" horiz-adv-x="984" 
d="M674 588l-115 -41l79 -87l-74 -63l-75 105l-74 -104l-74 63l80 87l-115 42l39 88l101 -52l-4 114h95l-4 -115l101 52zM428 143l-115 -41l79 -87l-74 -63l-75 105l-74 -104l-74 63l80 87l-115 42l39 88l101 -52l-4 114h95l-4 -115l101 52zM924 143l-115 -41l79 -87
l-74 -63l-75 105l-74 -104l-74 63l80 87l-115 42l39 88l101 -52l-4 114h95l-4 -115l101 52z" />
    <glyph glyph-name="fraction" unicode="&#x2044;" horiz-adv-x="196" 
d="M-180 0l443 700h113l-443 -700h-113z" />
    <glyph glyph-name="uni2051" unicode="&#x2051;" horiz-adv-x="488" 
d="M428 588l-115 -41l79 -87l-74 -63l-75 105l-74 -104l-74 63l80 87l-115 42l39 88l101 -52l-4 114h95l-4 -115l101 52zM428 140l-115 -41l79 -87l-74 -63l-75 105l-74 -104l-74 63l80 87l-115 42l39 88l101 -52l-4 114h95l-4 -115l101 52z" />
    <glyph glyph-name="uni2070" unicode="&#x2070;" horiz-adv-x="348" 
d="M59.5 756.5q41.5 50.5 114.5 50.5t115 -50.5t42 -137.5t-42 -137.5t-115 -50.5t-114.5 50.5t-41.5 137.5t41.5 137.5zM218 695q-16 28 -44 28t-44 -28t-16 -76q0 -49 16 -76.5t44 -27.5t44 27.5t16 76.5q0 48 -16 76z" />
    <glyph glyph-name="uni2074" unicode="&#x2074;" horiz-adv-x="353" 
d="M164 800h118v-201h54v-83h-54v-80h-93v80h-172v83zM189 709l-81 -110h81v110z" />
    <glyph glyph-name="uni2075" unicode="&#x2075;" horiz-adv-x="318" 
d="M281 719h-170l-4 -63q28 26 71 26q55 0 88.5 -33.5t33.5 -88.5q0 -58 -39 -94t-102 -36q-58 0 -95.5 32t-42.5 85h93q3 -15 15.5 -24t30.5 -9q19 0 31.5 12.5t12.5 33.5t-12.5 33.5t-32.5 12.5q-14 1 -25.5 -6t-17.5 -19h-90l10 219h245v-81z" />
    <glyph glyph-name="uni2076" unicode="&#x2076;" horiz-adv-x="331" 
d="M60 754q44 53 116 53q52 0 90 -30t46 -82h-91q-4 18 -17.5 29t-33.5 11q-30 0 -48.5 -27t-18.5 -65v-17q10 22 30.5 35.5t52.5 13.5q58 0 93.5 -33t35.5 -88t-39 -89t-104 -34q-73 0 -114.5 49.5t-41.5 132.5q0 88 44 141zM208 589.5q-14 13.5 -36 13.5t-36 -13.5
t-14 -35.5t13.5 -35t36.5 -13t36.5 13t13.5 35t-14 35.5z" />
    <glyph glyph-name="uni2077" unicode="&#x2077;" horiz-adv-x="301" 
d="M15 800h273v-76l-139 -289h-104l139 283h-169v82z" />
    <glyph glyph-name="uni2078" unicode="&#x2078;" horiz-adv-x="339" 
d="M35 594q18 23 54 34q-30 13 -45 32.5t-15 49.5q0 43 38 70t103 27t103.5 -27t38.5 -70q0 -31 -15.5 -50t-44.5 -32q35 -11 53 -34t18 -55q0 -48 -41 -78t-112 -30t-112 30t-41 78q0 32 18 55zM206 727q-14 11 -36 11q-21 0 -35 -11t-14 -29t14 -29t35 -11q23 0 36.5 11
t13.5 29t-14 29zM210.5 578.5q-15.5 12.5 -40.5 12.5q-24 0 -40 -12.5t-16 -31.5q0 -18 16 -30.5t40 -12.5t40 12.5t16 30.5q0 19 -15.5 31.5z" />
    <glyph glyph-name="uni2079" unicode="&#x2079;" horiz-adv-x="331" 
d="M271 484q-44 -53 -116 -53q-52 0 -90 30t-46 82h91q4 -18 17.5 -29t33.5 -11q31 0 49 25.5t18 66.5v17q-23 -49 -84 -49q-58 0 -93 33t-35 88t39 89t104 34q73 0 114.5 -49.5t41.5 -132.5q0 -88 -44 -141zM123 648.5q14 -13.5 36 -13.5t36 13.5t14 35.5t-13.5 35
t-36.5 13t-36.5 -13t-13.5 -35t14 -35.5z" />
    <glyph glyph-name="uni2080" unicode="&#x2080;" horiz-adv-x="348" 
d="M59.5 219.5q41.5 50.5 114.5 50.5t115 -50.5t42 -137.5t-42 -137.5t-115 -50.5t-114.5 50.5t-41.5 137.5t41.5 137.5zM218 158q-16 28 -44 28t-44 -28t-16 -76q0 -49 16 -76.5t44 -27.5t44 27.5t16 76.5q0 48 -16 76z" />
    <glyph glyph-name="uni2081" unicode="&#x2081;" horiz-adv-x="203" 
d="M81 -100v216q-7 -3 -19 -3h-62v85h57q12 0 19 10.5t7 25.5v30h92v-364h-94z" />
    <glyph glyph-name="uni2082" unicode="&#x2082;" horiz-adv-x="327" 
d="M16 132q0 62 41 100t102 38q66 0 106.5 -34t40.5 -89q0 -37 -18 -61.5t-49 -46.5l-74 -53h145v-86h-290v81l146 101q19 14 30 29t11 34q0 18 -13 29.5t-34 11.5q-23 0 -36.5 -14.5t-13.5 -43.5v-3h-94v7z" />
    <glyph glyph-name="uni2083" unicode="&#x2083;" horiz-adv-x="336" 
d="M65 237.5q38 32.5 105 32.5q65 0 102 -28t37 -73q0 -30 -17.5 -50t-43.5 -28q33 -7 52 -28.5t19 -54.5q0 -53 -41 -83.5t-113 -30.5q-73 0 -111.5 33.5t-39.5 96.5h96q3 -48 54 -48q23 0 37.5 10.5t14.5 28.5t-14.5 28.5t-41.5 10.5h-20v63h22q22 0 36 9.5t14 25.5
q0 17 -12 26.5t-32 9.5q-22 0 -35 -11t-14 -30h-94q2 58 40 90.5z" />
    <glyph glyph-name="uni2084" unicode="&#x2084;" horiz-adv-x="353" 
d="M164 264h118v-201h54v-83h-54v-80h-93v80h-172v83zM189 173l-81 -110h81v110z" />
    <glyph glyph-name="uni2085" unicode="&#x2085;" horiz-adv-x="318" 
d="M281 183h-170l-4 -63q28 26 71 26q55 0 88.5 -33.5t33.5 -88.5q0 -58 -39 -94t-102 -36q-58 0 -95.5 32t-42.5 85h93q3 -15 15.5 -24t30.5 -9q19 0 31.5 12.5t12.5 33.5t-12.5 33.5t-32.5 12.5q-14 1 -25.5 -6t-17.5 -19h-90l10 219h245v-81z" />
    <glyph glyph-name="uni2086" unicode="&#x2086;" horiz-adv-x="331" 
d="M60 217q44 53 116 53q52 0 90 -30t46 -82h-91q-4 18 -17.5 29t-33.5 11q-30 0 -48.5 -27t-18.5 -65v-17q10 22 30.5 35.5t52.5 13.5q58 0 93.5 -33t35.5 -88t-39 -89t-104 -34q-73 0 -114.5 49.5t-41.5 132.5q0 88 44 141zM208 52.5q-14 13.5 -36 13.5t-36 -13.5
t-14 -35.5t13.5 -35t36.5 -13t36.5 13t13.5 35t-14 35.5z" />
    <glyph glyph-name="uni2087" unicode="&#x2087;" horiz-adv-x="301" 
d="M15 265h273v-76l-139 -289h-104l139 283h-169v82z" />
    <glyph glyph-name="uni2088" unicode="&#x2088;" horiz-adv-x="339" 
d="M35 57q18 23 54 34q-30 13 -45 32.5t-15 49.5q0 43 38 70t103 27t103.5 -27t38.5 -70q0 -31 -15.5 -50t-44.5 -32q35 -11 53 -34t18 -55q0 -48 -41 -78t-112 -30t-112 30t-41 78q0 32 18 55zM206 190q-14 11 -36 11q-21 0 -35 -11t-14 -29t14 -29t35 -11q23 0 36.5 11
t13.5 29t-14 29zM210.5 41.5q-15.5 12.5 -40.5 12.5q-24 0 -40 -12.5t-16 -31.5q0 -18 16 -30.5t40 -12.5t40 12.5t16 30.5q0 19 -15.5 31.5z" />
    <glyph glyph-name="uni2089" unicode="&#x2089;" horiz-adv-x="331" 
d="M271 -53q-44 -53 -116 -53q-52 0 -90 30t-46 82h91q4 -18 17.5 -29t33.5 -11q31 0 49 25.5t18 66.5v17q-23 -49 -84 -49q-58 0 -93 33t-35 88t39 89t104 34q73 0 114.5 -49.5t41.5 -132.5q0 -88 -44 -141zM123 111.5q14 -13.5 36 -13.5t36 13.5t14 35.5t-13.5 35
t-36.5 13t-36.5 -13t-13.5 -35t14 -35.5z" />
    <glyph glyph-name="franc" unicode="&#x20a3;" horiz-adv-x="567" 
d="M546 571h-312v-164h256v-123h-256v-88h121v-102h-121v-94h-150v94h-85v102h85v504h462v-129z" />
    <glyph glyph-name="uni20A8" unicode="&#x20a8;" horiz-adv-x="606" 
d="M584 700l-16 -87h-158q36 -44 45 -102h114l-17 -87h-97q-9 -52 -39.5 -92t-76.5 -62l137 -270h-165l-118 235h-133v122h129q40 0 68 18t39 49h-236v87h236q-11 30 -39 48t-67 18h-130v123h524z" />
    <glyph glyph-name="Euro" unicode="&#x20ac;" horiz-adv-x="676" 
d="M21 239v87h62q-1 5 -1 25q0 13 1 21h-62v86h68q20 116 94 182t186 66q125 0 199 -69.5t82 -190.5h-147q-8 65 -41 101t-87 36q-53 0 -88 -32.5t-48 -92.5h159l-16 -86h-152v-20q0 -20 1 -26h141l-17 -87h-116q14 -59 49 -90.5t87 -31.5q54 0 87 36t41 101h147
q-8 -121 -82 -190.5t-198 -69.5q-112 0 -187 65t-94 180h-68z" />
    <glyph glyph-name="uni20BF" unicode="&#x20bf;" horiz-adv-x="652" 
d="M189 700v104h91v-104h60v104h90v-112q76 -15 117 -60.5t41 -115.5q0 -65 -36 -105t-101 -52q77 -10 119.5 -50t42.5 -112q0 -75 -47.5 -124t-135.5 -65v-104h-90v96h-60v-96h-91v96h-129v700h129zM210 412h129q48 0 73.5 22.5t25.5 62.5t-25 62.5t-74 22.5h-129v-170z
M210 119h135q54 0 84 23t30 64q0 43 -30.5 66.5t-83.5 23.5h-135v-177z" />
    <glyph glyph-name="trademark" unicode="&#x2122;" horiz-adv-x="713" 
d="M45 700h239v-67h-83v-201h-72v201h-84v67zM314 700h102l74 -175l70 175h100v-268h-71v173l-75 -173h-54l-75 173v-173h-71v268z" />
    <glyph glyph-name="uni2126" unicode="&#x2126;" horiz-adv-x="731" 
d="M420 186q68 43 94.5 93t26.5 120q0 52 -23 93.5t-63.5 64.5t-90.5 23t-89.5 -23t-62 -64.5t-22.5 -93.5q0 -70 26.5 -120t94.5 -94v-185h-263v129h159v19q-91 31 -130.5 97t-39.5 162q0 93 41.5 160.5t116 103t169.5 35.5q97 0 172 -35.5t117 -103t42 -159.5
q0 -96 -41.5 -163.5t-129.5 -96.5v-19h160v-129h-264v186z" />
    <glyph glyph-name="uni2153" unicode="&#x2153;" horiz-adv-x="721" 
d="M81 336v216q-8 -3 -19 -3h-62v85h57q12 0 19 10.5t7 25.5v30h92v-364h-94zM23 0l443 700h113l-443 -700h-113zM457 337.5q38 32.5 105 32.5q65 0 102 -28t37 -73q0 -30 -17.5 -50t-43.5 -28q33 -7 52 -28.5t19 -54.5q0 -53 -41 -83.5t-113 -30.5q-73 0 -111.5 33.5
t-39.5 96.5h96q3 -48 54 -48q23 0 37.5 10.5t14.5 28.5t-14.5 28.5t-41.5 10.5h-20v63h22q22 0 36 9.5t14 25.5q0 17 -12 26.5t-32 9.5q-22 0 -35 -11t-14 -30h-94q2 58 40 90.5z" />
    <glyph glyph-name="uni2155" unicode="&#x2155;" horiz-adv-x="708" 
d="M81 336v216q-8 -3 -19 -3h-62v85h57q12 0 19 10.5t7 25.5v30h92v-364h-94zM23 0l443 700h113l-443 -700h-113zM679 283h-170l-4 -63q28 26 71 26q55 0 88.5 -33.5t33.5 -88.5q0 -58 -39 -94t-102 -36q-58 0 -95.5 32t-42.5 85h93q3 -15 15.5 -24t30.5 -9q19 0 31.5 12.5
t12.5 33.5t-12.5 33.5t-32.5 12.5q-14 1 -25.5 -6t-17.5 -19h-90l10 219h245v-81z" />
    <glyph glyph-name="uni2156" unicode="&#x2156;" horiz-adv-x="831" 
d="M16 568q0 62 41 100t102 38q66 0 106.5 -34t40.5 -89q0 -37 -18 -61.5t-49 -46.5l-74 -53h145v-86h-290v81l146 101q19 14 30 29t11 34q0 18 -13 29.5t-34 11.5q-23 0 -36.5 -14.5t-13.5 -43.5v-3h-94v7zM147 0l443 700h113l-443 -700h-113zM803 283h-170l-4 -63
q28 26 71 26q55 0 88.5 -33.5t33.5 -88.5q0 -58 -39 -94t-102 -36q-58 0 -95.5 32t-42.5 85h93q3 -15 15.5 -24t30.5 -9q19 0 31.5 12.5t12.5 33.5t-12.5 33.5t-32.5 12.5q-14 1 -25.5 -6t-17.5 -19h-90l10 219h245v-81z" />
    <glyph glyph-name="uni2157" unicode="&#x2157;" horiz-adv-x="840" 
d="M65 674.5q38 32.5 105 32.5q65 0 102 -28t37 -73q0 -30 -17.5 -50t-43.5 -28q33 -7 52 -28.5t19 -54.5q0 -53 -41 -83.5t-113 -30.5q-73 0 -111.5 33.5t-39.5 96.5h96q3 -48 54 -48q23 0 37.5 10.5t14.5 28.5t-14.5 28.5t-41.5 10.5h-20v63h22q22 0 36 9.5t14 25.5
q0 17 -12 26.5t-32 9.5q-22 0 -35 -11t-14 -30h-94q2 58 40 90.5zM156 0l443 700h113l-443 -700h-113zM812 283h-170l-4 -63q28 26 71 26q55 0 88.5 -33.5t33.5 -88.5q0 -58 -39 -94t-102 -36q-58 0 -95.5 32t-42.5 85h93q3 -15 15.5 -24t30.5 -9q19 0 31.5 12.5t12.5 33.5
t-12.5 33.5t-32.5 12.5q-14 1 -25.5 -6t-17.5 -19h-90l10 219h245v-81z" />
    <glyph glyph-name="uni2158" unicode="&#x2158;" horiz-adv-x="857" 
d="M164 700h118v-201h54v-83h-54v-80h-93v80h-172v83zM189 609l-81 -110h81v110zM173 0l443 700h113l-443 -700h-113zM829 283h-170l-4 -63q28 26 71 26q55 0 88.5 -33.5t33.5 -88.5q0 -58 -39 -94t-102 -36q-58 0 -95.5 32t-42.5 85h93q3 -15 15.5 -24t30.5 -9
q19 0 31.5 12.5t12.5 33.5t-12.5 33.5t-32.5 12.5q-14 1 -25.5 -6t-17.5 -19h-90l10 219h245v-81z" />
    <glyph glyph-name="uni2159" unicode="&#x2159;" horiz-adv-x="701" 
d="M81 336v216q-8 -3 -19 -3h-62v85h57q12 0 19 10.5t7 25.5v30h92v-364h-94zM23 0l443 700h113l-443 -700h-113zM437 317q44 53 116 53q52 0 90 -30t46 -82h-91q-4 18 -17.5 29t-33.5 11q-30 0 -48.5 -27t-18.5 -65v-17q10 22 30.5 35.5t52.5 13.5q58 0 93.5 -33t35.5 -88
t-39 -89t-104 -34q-73 0 -114.5 49.5t-41.5 132.5q0 88 44 141zM585 152.5q-14 13.5 -36 13.5t-36 -13.5t-14 -35.5t13.5 -35t36.5 -13t36.5 13t13.5 35t-14 35.5z" />
    <glyph glyph-name="oneeighth" unicode="&#x215b;" horiz-adv-x="717" 
d="M81 336v216q-8 -3 -19 -3h-62v85h57q12 0 19 10.5t7 25.5v30h92v-364h-94zM23 0l443 700h113l-443 -700h-113zM419 157q18 23 54 34q-30 13 -45 32.5t-15 49.5q0 43 38 70t103 27t103.5 -27t38.5 -70q0 -31 -15.5 -50t-44.5 -32q35 -11 53 -34t18 -55q0 -48 -41 -78
t-112 -30t-112 30t-41 78q0 32 18 55zM590 290q-14 11 -36 11q-21 0 -35 -11t-14 -29t14 -29t35 -11q23 0 36.5 11t13.5 29t-14 29zM594.5 141.5q-15.5 12.5 -40.5 12.5q-24 0 -40 -12.5t-16 -31.5q0 -18 16 -30.5t40 -12.5t40 12.5t16 30.5q0 19 -15.5 31.5z" />
    <glyph glyph-name="threeeighths" unicode="&#x215c;" horiz-adv-x="850" 
d="M65 674.5q38 32.5 105 32.5q65 0 102 -28t37 -73q0 -30 -17.5 -50t-43.5 -28q33 -7 52 -28.5t19 -54.5q0 -53 -41 -83.5t-113 -30.5q-73 0 -111.5 33.5t-39.5 96.5h96q3 -48 54 -48q23 0 37.5 10.5t14.5 28.5t-14.5 28.5t-41.5 10.5h-20v63h22q22 0 36 9.5t14 25.5
q0 17 -12 26.5t-32 9.5q-22 0 -35 -11t-14 -30h-94q2 58 40 90.5zM156 0l443 700h113l-443 -700h-113zM552 157q18 23 54 34q-30 13 -45 32.5t-15 49.5q0 43 38 70t103 27t103.5 -27t38.5 -70q0 -31 -15.5 -50t-44.5 -32q35 -11 53 -34t18 -55q0 -48 -41 -78t-112 -30
t-112 30t-41 78q0 32 18 55zM723 290q-14 11 -36 11q-21 0 -35 -11t-14 -29t14 -29t35 -11q23 0 36.5 11t13.5 29t-14 29zM727.5 141.5q-15.5 12.5 -40.5 12.5q-24 0 -40 -12.5t-16 -31.5q0 -18 16 -30.5t40 -12.5t40 12.5t16 30.5q0 19 -15.5 31.5z" />
    <glyph glyph-name="fiveeighths" unicode="&#x215d;" horiz-adv-x="832" 
d="M281 619h-170l-4 -63q28 26 71 26q55 0 88.5 -33.5t33.5 -88.5q0 -58 -39 -94t-102 -36q-58 0 -95.5 32t-42.5 85h93q3 -15 15.5 -24t30.5 -9q19 0 31.5 12.5t12.5 33.5t-12.5 33.5t-32.5 12.5q-14 1 -25.5 -6t-17.5 -19h-90l10 219h245v-81zM138 0l443 700h113
l-443 -700h-113zM534 157q18 23 54 34q-30 13 -45 32.5t-15 49.5q0 43 38 70t103 27t103.5 -27t38.5 -70q0 -31 -15.5 -50t-44.5 -32q35 -11 53 -34t18 -55q0 -48 -41 -78t-112 -30t-112 30t-41 78q0 32 18 55zM705 290q-14 11 -36 11q-21 0 -35 -11t-14 -29t14 -29t35 -11
q23 0 36.5 11t13.5 29t-14 29zM709.5 141.5q-15.5 12.5 -40.5 12.5q-24 0 -40 -12.5t-16 -31.5q0 -18 16 -30.5t40 -12.5t40 12.5t16 30.5q0 19 -15.5 31.5z" />
    <glyph glyph-name="seveneighths" unicode="&#x215e;" horiz-adv-x="814" 
d="M15 700h273v-76l-139 -289h-104l139 283h-169v82zM121 0l443 700h113l-443 -700h-113zM517 157q18 23 54 34q-30 13 -45 32.5t-15 49.5q0 43 38 70t103 27t103.5 -27t38.5 -70q0 -31 -15.5 -50t-44.5 -32q35 -11 53 -34t18 -55q0 -48 -41 -78t-112 -30t-112 30t-41 78
q0 32 18 55zM688 290q-14 11 -36 11q-21 0 -35 -11t-14 -29t14 -29t35 -11q23 0 36.5 11t13.5 29t-14 29zM692.5 141.5q-15.5 12.5 -40.5 12.5q-24 0 -40 -12.5t-16 -31.5q0 -18 16 -30.5t40 -12.5t40 12.5t16 30.5q0 19 -15.5 31.5z" />
    <glyph glyph-name="arrowleft" unicode="&#x2190;" horiz-adv-x="619" 
d="M9 268l285 286l86 -87l-141 -134h334v-129h-334l141 -134l-86 -87z" />
    <glyph glyph-name="arrowup" unicode="&#x2191;" horiz-adv-x="658" 
d="M614 236l-86 -86l-135 141v-292h-129v292l-134 -141l-87 86l286 285z" />
    <glyph glyph-name="arrowright" unicode="&#x2192;" horiz-adv-x="619" 
d="M610 268l-285 -285l-86 87l141 134h-334v129h334l-141 134l86 87z" />
    <glyph glyph-name="arrowdown" unicode="&#x2193;" horiz-adv-x="658" 
d="M614 276l-285 -285l-286 285l87 86l134 -141v292h129v-292l135 141z" />
    <glyph glyph-name="arrowboth" unicode="&#x2194;" horiz-adv-x="861" 
d="M563 527l259 -259l-259 -259l-86 87l114 107h-322l115 -107l-86 -87l-259 259l259 259l86 -87l-115 -107h322l-114 107z" />
    <glyph glyph-name="arrowupdn" unicode="&#x2195;" horiz-adv-x="596" 
d="M39 469l259 258l259 -258l-87 -86l-107 114v-302l107 114l87 -86l-260 -258l-258 258l87 86l107 -114v302l-107 -114z" />
    <glyph glyph-name="uni2196" unicode="&#x2196;" horiz-adv-x="525" 
d="M44 514h403l1 -112l-213 1l247 -236l-91 -92l-237 247l1 -212h-111v404z" />
    <glyph glyph-name="uni2197" unicode="&#x2197;" horiz-adv-x="525" 
d="M481 514v-404h-111l1 212l-237 -247l-91 92l247 236l-213 -1l1 112h403z" />
    <glyph glyph-name="uni2198" unicode="&#x2198;" horiz-adv-x="525" 
d="M77 111l213 -1l-247 237l91 91l237 -246l-1 211h111v-403h-403z" />
    <glyph glyph-name="uni2199" unicode="&#x2199;" horiz-adv-x="525" 
d="M155 404l-1 -213l236 247l92 -91l-247 -237l212 1v-111h-404v404h112z" />
    <glyph glyph-name="partialdiff" unicode="&#x2202;" horiz-adv-x="607" 
d="M66.5 355q32.5 51 86 76.5t114.5 25.5q44 0 83 -11.5t64 -35.5q-23 73 -93 117t-209 57v122q154 -2 257.5 -61.5t153 -156.5t49.5 -215q0 -79 -30.5 -142t-92 -100t-150.5 -37q-79 0 -139.5 31t-93 85t-32.5 122q0 72 32.5 123zM391 142.5q35 35.5 35 92.5q0 54 -35.5 87
t-91.5 33q-54 0 -87.5 -34.5t-33.5 -89.5t33.5 -89.5t87.5 -34.5q57 0 92 35.5z" />
    <glyph glyph-name="emptyset" unicode="&#x2205;" horiz-adv-x="624" 
d="M592 357q0 -76 -36 -136t-99.5 -93.5t-144.5 -33.5q-94 0 -164 45l-43 -42l-66 65l41 40q-49 66 -49 155q0 76 36 135.5t100 93.5t145 34q88 0 157 -41l46 44l66 -65l-42 -41q53 -67 53 -160zM184 302l190 185q-28 14 -62 14q-60 0 -98.5 -41t-38.5 -103q0 -29 9 -55z
M409.5 253.5q38.5 41.5 38.5 103.5q0 34 -12 61l-193 -188q31 -18 69 -18q59 0 97.5 41.5z" />
    <glyph glyph-name="uni2206" unicode="&#x2206;" horiz-adv-x="704" 
d="M26 0v119l235 581h183l235 -581v-119h-653zM184 135h327l-164 414z" />
    <glyph glyph-name="product" unicode="&#x220f;" horiz-adv-x="739" 
d="M714 700v-129h-76v-677h-150v677h-238v-677h-150v677h-76v129h690z" />
    <glyph glyph-name="summation" unicode="&#x2211;" horiz-adv-x="627" 
d="M33 13l270 298l-251 270v119h527v-129h-334l198 -211v-95l-224 -244h368v-127h-554v119z" />
    <glyph glyph-name="minus" unicode="&#x2212;" horiz-adv-x="515" 
d="M42 225v119h431v-119h-431z" />
    <glyph glyph-name="radical" unicode="&#x221a;" horiz-adv-x="625" 
d="M102 328l-44 -22l-47 104l163 78l137 -315l166 527h137l-224 -700h-140z" />
    <glyph glyph-name="infinity" unicode="&#x221e;" horiz-adv-x="845" 
d="M514.5 104q-43.5 25 -93.5 92q-51 -67 -94 -92t-98 -25q-64 0 -110 30.5t-69.5 80.5t-23.5 107q0 58 23.5 108t69.5 80.5t110 30.5q55 0 98.5 -25t93.5 -91q51 66 94 91t98 25q64 0 110.5 -30.5t70 -80.5t23.5 -108q0 -57 -23.5 -107t-70 -80.5t-110.5 -30.5
q-55 0 -98.5 25zM289 225q25 20 61 72q-36 52 -61 72.5t-53 20.5q-40 0 -62 -25.5t-22 -67.5q0 -43 22 -67.5t62 -24.5q28 0 53 20zM553 225q25 -20 53 -20q40 0 62 24.5t22 67.5q0 42 -22 67.5t-62 25.5q-28 0 -53 -20.5t-61 -72.5q36 -52 61 -72z" />
    <glyph glyph-name="integral" unicode="&#x222b;" horiz-adv-x="406" 
d="M81 13q26 0 38.5 13.5t12.5 43.5v468q0 77 39 119.5t116 42.5h95v-119h-58q-26 0 -38.5 -13.5t-12.5 -43.5v-468q0 -77 -39 -119.5t-116 -42.5h-94v119h57z" />
    <glyph glyph-name="approxequal" unicode="&#x2248;" horiz-adv-x="515" 
d="M39 42q0 88 32.5 132.5t95.5 44.5q34 0 56 -8.5t48 -24.5q15 -10 25.5 -15t22.5 -5q45 0 45 53h112q0 -88 -32.5 -132.5t-95.5 -44.5q-35 0 -58 9t-46 25q-3 2 -13 7.5t-18.5 8.5t-16.5 3q-24 0 -34.5 -13.5t-10.5 -39.5h-112zM39 275q0 88 32.5 132.5t95.5 44.5
q34 0 56 -8.5t48 -24.5q15 -10 25.5 -15t22.5 -5q45 0 45 53h112q0 -88 -32.5 -132.5t-95.5 -44.5q-35 0 -58 9t-46 25q-3 2 -13 7.5t-18.5 8.5t-16.5 3q-24 0 -34.5 -13.5t-10.5 -39.5h-112z" />
    <glyph glyph-name="notequal" unicode="&#x2260;" horiz-adv-x="515" 
d="M463 327h-123l-32 -97h155v-118h-194l-29 -87h-140l29 87h-77v118h116l32 97h-148v119h187l27 82h140l-27 -82h84v-119z" />
    <glyph glyph-name="lessequal" unicode="&#x2264;" horiz-adv-x="515" 
d="M60 325v132l395 164v-136l-238 -94l238 -94v-136zM60 0v118h395v-118h-395z" />
    <glyph glyph-name="greaterequal" unicode="&#x2265;" horiz-adv-x="515" 
d="M455 457v-132l-395 -164v136l238 94l-238 94v136zM60 0v118h395v-118h-395z" />
    <glyph glyph-name="dotmath" unicode="&#x22c5;" horiz-adv-x="248" 
d="M63 358.5q24 23.5 61 23.5q36 0 60.5 -24t24.5 -60t-24.5 -59.5t-60.5 -23.5q-37 0 -61 23.5t-24 59.5q0 37 24 60.5z" />
    <glyph glyph-name="filledbox" unicode="&#x25a0;" horiz-adv-x="823" 
d="M60 700h704v-700h-704v700z" />
    <glyph glyph-name="uni25A1" unicode="&#x25a1;" horiz-adv-x="821" 
d="M60 700h702v-700h-702v700zM202 570v-439h417v439h-417z" />
    <glyph glyph-name="uni25AF" unicode="&#x25af;" horiz-adv-x="621" 
d="M60 700h502v-700h-502v700zM202 570v-440h217v440h-217z" />
    <glyph glyph-name="triagup" unicode="&#x25b2;" horiz-adv-x="849" 
d="M426 712l409 -712h-820z" />
    <glyph glyph-name="uni25B3" unicode="&#x25b3;" horiz-adv-x="849" 
d="M426 712l409 -712h-820zM425 450l-186 -322h371z" />
    <glyph glyph-name="uni25B6" unicode="&#x25b6;" horiz-adv-x="499" 
d="M49 506l446 -256l-446 -256v512z" />
    <glyph glyph-name="uni25B7" unicode="&#x25b7;" horiz-adv-x="512" 
d="M49 521l459 -263l-459 -264v527zM157 171l154 87l-154 87v-174z" />
    <glyph glyph-name="uni25C0" unicode="&#x25c0;" horiz-adv-x="499" 
d="M450 506v-512l-446 256z" />
    <glyph glyph-name="uni25C1" unicode="&#x25c1;" horiz-adv-x="512" 
d="M463 521v-527l-459 264zM355 171v174l-154 -87z" />
    <glyph glyph-name="lozenge" unicode="&#x25ca;" horiz-adv-x="649" 
d="M412 700l198 -350l-198 -350h-175l-198 350l198 350h175zM325 114l122 236l-122 236l-123 -236z" />
    <glyph glyph-name="circle" unicode="&#x25cb;" horiz-adv-x="790" 
d="M582 660.5q83 -45.5 130 -126.5t47 -184t-47 -184t-130 -126.5t-187 -45.5t-186.5 45.5t-129.5 126.5t-47 184t47 184t129.5 126.5t186.5 45.5t187 -45.5zM260 584.5q-60 -34.5 -93.5 -96t-33.5 -138.5t33.5 -138.5t93.5 -96t135 -34.5t135 34.5t93.5 96t33.5 138.5
t-33.5 138.5t-93.5 96t-135 34.5t-135 -34.5z" />
    <glyph glyph-name="uni25CF" unicode="&#x25cf;" horiz-adv-x="788" 
d="M208.5 660.5q-82.5 -45.5 -129.5 -126.5t-47 -184t47 -184t129.5 -126.5t185.5 -45.5q104 0 186.5 45.5t129.5 126.5t47 184t-47 184t-129.5 126.5t-186.5 45.5q-103 0 -185.5 -45.5z" />
    <glyph glyph-name="uni25FD" unicode="&#x25fd;" horiz-adv-x="612" 
d="M49 514h514v-516h-514v516zM160 408v-304h291v304h-291z" />
    <glyph glyph-name="uni25FE" unicode="&#x25fe;" horiz-adv-x="604" 
d="M49 506h506v-506h-506v506z" />
    <glyph glyph-name="uni262E" unicode="&#x262e;" horiz-adv-x="780" 
d="M78 534q46 81 127.5 126.5t184.5 45.5t185 -45.5t128 -126.5t46 -184t-46 -184t-128 -126.5t-185 -45.5t-184.5 45.5t-127.5 126.5t-46 184t46 184zM336 580q-82 -15 -132.5 -78t-50.5 -152q0 -44 21 -81l162 163v148zM444 431l161 -163q23 38 23 82q0 89 -51 152
t-133 78v-149zM444 120q69 12 115 58l-115 118v-176zM221 177q48 -45 115 -57v174z" />
    <glyph glyph-name="uni26AA" unicode="&#x26aa;" horiz-adv-x="576" 
d="M420 476.5q59 -33.5 93 -92.5t34 -131t-34 -131t-93 -92.5t-132 -33.5t-132 33.5t-93 92.5t-34 131t34 131t93 92.5t132 33.5t132 -33.5zM214.5 382.5q-33.5 -19.5 -53 -54t-19.5 -75.5t19.5 -75.5t53 -54t73.5 -19.5t73.5 19.5t53 54t19.5 75.5t-19.5 75.5t-53 54
t-73.5 19.5t-73.5 -19.5z" />
    <glyph glyph-name="uni26AB" unicode="&#x26ab;" horiz-adv-x="576" 
d="M420 476.5q59 -33.5 93 -92.5t34 -131t-34 -131t-93 -92.5t-132 -33.5t-132 33.5t-93 92.5t-34 131t34 131t93 92.5t132 33.5t132 -33.5z" />
    <glyph glyph-name="uni2713" unicode="&#x2713;" horiz-adv-x="980" 
d="M15 349l99 99l251 -249l500 501l101 -99l-601 -601z" />
    <glyph glyph-name="uni2715" unicode="&#x2715;" horiz-adv-x="767" 
d="M134 700l250 -250l250 250l100 -99l-251 -251l251 -251l-100 -99l-250 251l-251 -251l-99 99l251 251l-251 251z" />
    <glyph glyph-name="uni2780" unicode="&#x2780;" horiz-adv-x="790" 
d="M582 660.5q83 -45.5 130 -126.5t47 -184t-47 -184t-130 -126.5t-187 -45.5t-186.5 45.5t-129.5 126.5t-47 184t47 184t129.5 126.5t186.5 45.5t187 -45.5zM260 584.5q-60 -34.5 -93.5 -96t-33.5 -138.5t33.5 -138.5t93.5 -96t135 -34.5t135 34.5t93.5 96t33.5 138.5
t-33.5 138.5t-93.5 96t-135 34.5t-135 -34.5zM356 168v216q-7 -3 -19 -3h-62v85h57q12 0 19 10.5t7 25.5v30h92v-364h-94z" />
    <glyph glyph-name="uni2781" unicode="&#x2781;" horiz-adv-x="790" 
d="M582 660.5q83 -45.5 130 -126.5t47 -184t-47 -184t-130 -126.5t-187 -45.5t-186.5 45.5t-129.5 126.5t-47 184t47 184t129.5 126.5t186.5 45.5t187 -45.5zM260 584.5q-60 -34.5 -93.5 -96t-33.5 -138.5t33.5 -138.5t93.5 -96t135 -34.5t135 34.5t93.5 96t33.5 138.5
t-33.5 138.5t-93.5 96t-135 34.5t-135 -34.5zM245 400q0 62 41 100t102 38q66 0 106.5 -34t40.5 -89q0 -37 -18 -61.5t-49 -46.5l-74 -53h145v-86h-290v81l146 101q19 14 30 29t11 34q0 18 -13 29.5t-34 11.5q-23 0 -36.5 -14.5t-13.5 -43.5v-3h-94v7z" />
    <glyph glyph-name="uni2782" unicode="&#x2782;" horiz-adv-x="790" 
d="M582 660.5q83 -45.5 130 -126.5t47 -184t-47 -184t-130 -126.5t-187 -45.5t-186.5 45.5t-129.5 126.5t-47 184t47 184t129.5 126.5t186.5 45.5t187 -45.5zM260 584.5q-60 -34.5 -93.5 -96t-33.5 -138.5t33.5 -138.5t93.5 -96t135 -34.5t135 34.5t93.5 96t33.5 138.5
t-33.5 138.5t-93.5 96t-135 34.5t-135 -34.5zM290 505.5q38 32.5 105 32.5q65 0 102 -28t37 -73q0 -30 -17.5 -50t-43.5 -28q33 -7 52 -28.5t19 -54.5q0 -53 -41 -83.5t-113 -30.5q-73 0 -111.5 33.5t-39.5 96.5h96q3 -48 54 -48q23 0 37.5 10.5t14.5 28.5t-14.5 28.5
t-41.5 10.5h-20v63h22q22 0 36 9.5t14 25.5q0 17 -12 26.5t-32 9.5q-22 0 -35 -11t-14 -30h-94q2 58 40 90.5z" />
    <glyph glyph-name="uni2783" unicode="&#x2783;" horiz-adv-x="790" 
d="M582 660.5q83 -45.5 130 -126.5t47 -184t-47 -184t-130 -126.5t-187 -45.5t-186.5 45.5t-129.5 126.5t-47 184t47 184t129.5 126.5t186.5 45.5t187 -45.5zM260 584.5q-60 -34.5 -93.5 -96t-33.5 -138.5t33.5 -138.5t93.5 -96t135 -34.5t135 34.5t93.5 96t33.5 138.5
t-33.5 138.5t-93.5 96t-135 34.5t-135 -34.5zM368 532h118v-201h54v-83h-54v-80h-93v80h-172v83zM393 441l-81 -110h81v110z" />
    <glyph glyph-name="uni2784" unicode="&#x2784;" horiz-adv-x="790" 
d="M582 660.5q83 -45.5 130 -126.5t47 -184t-47 -184t-130 -126.5t-187 -45.5t-186.5 45.5t-129.5 126.5t-47 184t47 184t129.5 126.5t186.5 45.5t187 -45.5zM260 584.5q-60 -34.5 -93.5 -96t-33.5 -138.5t33.5 -138.5t93.5 -96t135 -34.5t135 34.5t93.5 96t33.5 138.5
t-33.5 138.5t-93.5 96t-135 34.5t-135 -34.5zM515 451h-170l-4 -63q28 26 71 26q55 0 88.5 -33.5t33.5 -88.5q0 -58 -39 -94t-102 -36q-58 0 -95.5 32t-42.5 85h93q3 -15 15.5 -24t30.5 -9q19 0 31.5 12.5t12.5 33.5t-12.5 33.5t-32.5 12.5q-14 1 -25.5 -6t-17.5 -19h-90
l10 219h245v-81z" />
    <glyph glyph-name="uni2785" unicode="&#x2785;" horiz-adv-x="790" 
d="M582 660.5q83 -45.5 130 -126.5t47 -184t-47 -184t-130 -126.5t-187 -45.5t-186.5 45.5t-129.5 126.5t-47 184t47 184t129.5 126.5t186.5 45.5t187 -45.5zM260 584.5q-60 -34.5 -93.5 -96t-33.5 -138.5t33.5 -138.5t93.5 -96t135 -34.5t135 34.5t93.5 96t33.5 138.5
t-33.5 138.5t-93.5 96t-135 34.5t-135 -34.5zM282 485q44 53 116 53q52 0 90 -30t46 -82h-91q-4 18 -17.5 29t-33.5 11q-30 0 -48.5 -27t-18.5 -65v-17q10 22 30.5 35.5t52.5 13.5q58 0 93.5 -33t35.5 -88t-39 -89t-104 -34q-73 0 -114.5 49.5t-41.5 132.5q0 88 44 141z
M430 320.5q-14 13.5 -36 13.5t-36 -13.5t-14 -35.5t13.5 -35t36.5 -13t36.5 13t13.5 35t-14 35.5z" />
    <glyph glyph-name="uni2786" unicode="&#x2786;" horiz-adv-x="790" 
d="M582 660.5q83 -45.5 130 -126.5t47 -184t-47 -184t-130 -126.5t-187 -45.5t-186.5 45.5t-129.5 126.5t-47 184t47 184t129.5 126.5t186.5 45.5t187 -45.5zM260 584.5q-60 -34.5 -93.5 -96t-33.5 -138.5t33.5 -138.5t93.5 -96t135 -34.5t135 34.5t93.5 96t33.5 138.5
t-33.5 138.5t-93.5 96t-135 34.5t-135 -34.5zM262 533h273v-76l-139 -289h-104l139 283h-169v82z" />
    <glyph glyph-name="uni2787" unicode="&#x2787;" horiz-adv-x="790" 
d="M582 660.5q83 -45.5 130 -126.5t47 -184t-47 -184t-130 -126.5t-187 -45.5t-186.5 45.5t-129.5 126.5t-47 184t47 184t129.5 126.5t186.5 45.5t187 -45.5zM260 584.5q-60 -34.5 -93.5 -96t-33.5 -138.5t33.5 -138.5t93.5 -96t135 -34.5t135 34.5t93.5 96t33.5 138.5
t-33.5 138.5t-93.5 96t-135 34.5t-135 -34.5zM260 325q18 23 54 34q-30 13 -45 32.5t-15 49.5q0 43 38 70t103 27t103.5 -27t38.5 -70q0 -31 -15.5 -50t-44.5 -32q35 -11 53 -34t18 -55q0 -48 -41 -78t-112 -30t-112 30t-41 78q0 32 18 55zM431 458q-14 11 -36 11
q-21 0 -35 -11t-14 -29t14 -29t35 -11q23 0 36.5 11t13.5 29t-14 29zM435.5 309.5q-15.5 12.5 -40.5 12.5q-24 0 -40 -12.5t-16 -31.5q0 -18 16 -30.5t40 -12.5t40 12.5t16 30.5q0 19 -15.5 31.5z" />
    <glyph glyph-name="uni2788" unicode="&#x2788;" horiz-adv-x="790" 
d="M582 660.5q83 -45.5 130 -126.5t47 -184t-47 -184t-130 -126.5t-187 -45.5t-186.5 45.5t-129.5 126.5t-47 184t47 184t129.5 126.5t186.5 45.5t187 -45.5zM260 584.5q-60 -34.5 -93.5 -96t-33.5 -138.5t33.5 -138.5t93.5 -96t135 -34.5t135 34.5t93.5 96t33.5 138.5
t-33.5 138.5t-93.5 96t-135 34.5t-135 -34.5zM507 215q-44 -53 -116 -53q-52 0 -90 30t-46 82h91q4 -18 17.5 -29t33.5 -11q31 0 49 25.5t18 66.5v17q-23 -49 -84 -49q-58 0 -93 33t-35 88t39 89t104 34q73 0 114.5 -49.5t41.5 -132.5q0 -88 -44 -141zM359 379.5
q14 -13.5 36 -13.5t36 13.5t14 35.5t-13.5 35t-36.5 13t-36.5 -13t-13.5 -35t14 -35.5z" />
    <glyph glyph-name="uni278A" unicode="&#x278a;" horiz-adv-x="788" 
d="M208.5 660.5q-82.5 -45.5 -129.5 -126.5t-47 -184t47 -184t129.5 -126.5t185.5 -45.5q104 0 186.5 45.5t129.5 126.5t47 184t-47 184t-129.5 126.5t-186.5 45.5q-103 0 -185.5 -45.5zM355 168v216q-7 -3 -19 -3h-62v85h57q12 0 19 10.5t7 25.5v30h92v-364h-94z" />
    <glyph glyph-name="uni278B" unicode="&#x278b;" horiz-adv-x="788" 
d="M208.5 660.5q-82.5 -45.5 -129.5 -126.5t-47 -184t47 -184t129.5 -126.5t185.5 -45.5q104 0 186.5 45.5t129.5 126.5t47 184t-47 184t-129.5 126.5t-186.5 45.5q-103 0 -185.5 -45.5zM244 400q0 62 41 100t102 38q66 0 106.5 -34t40.5 -89q0 -37 -18 -61.5t-49 -46.5
l-74 -53h145v-86h-290v81l146 101q19 14 30 29t11 34q0 18 -13 29.5t-34 11.5q-23 0 -36.5 -14.5t-13.5 -43.5v-3h-94v7z" />
    <glyph glyph-name="uni278C" unicode="&#x278c;" horiz-adv-x="788" 
d="M208.5 660.5q-82.5 -45.5 -129.5 -126.5t-47 -184t47 -184t129.5 -126.5t185.5 -45.5q104 0 186.5 45.5t129.5 126.5t47 184t-47 184t-129.5 126.5t-186.5 45.5q-103 0 -185.5 -45.5zM289 505.5q38 32.5 105 32.5q65 0 102 -28t37 -73q0 -30 -17.5 -50t-43.5 -28
q33 -7 52 -28.5t19 -54.5q0 -53 -41 -83.5t-113 -30.5q-73 0 -111.5 33.5t-39.5 96.5h96q3 -48 54 -48q23 0 37.5 10.5t14.5 28.5t-14.5 28.5t-41.5 10.5h-20v63h22q22 0 36 9.5t14 25.5q0 17 -12 26.5t-32 9.5q-22 0 -35 -11t-14 -30h-94q2 58 40 90.5z" />
    <glyph glyph-name="uni278D" unicode="&#x278d;" horiz-adv-x="788" 
d="M208.5 660.5q-82.5 -45.5 -129.5 -126.5t-47 -184t47 -184t129.5 -126.5t185.5 -45.5q104 0 186.5 45.5t129.5 126.5t47 184t-47 184t-129.5 126.5t-186.5 45.5q-103 0 -185.5 -45.5zM367 532h118v-201h54v-83h-54v-80h-93v80h-172v83zM392 441l-81 -110h81v110z" />
    <glyph glyph-name="uni278E" unicode="&#x278e;" horiz-adv-x="788" 
d="M208.5 660.5q-82.5 -45.5 -129.5 -126.5t-47 -184t47 -184t129.5 -126.5t185.5 -45.5q104 0 186.5 45.5t129.5 126.5t47 184t-47 184t-129.5 126.5t-186.5 45.5q-103 0 -185.5 -45.5zM514 451h-170l-4 -63q28 26 71 26q55 0 88.5 -33.5t33.5 -88.5q0 -58 -39 -94
t-102 -36q-58 0 -95.5 32t-42.5 85h93q3 -15 15.5 -24t30.5 -9q19 0 31.5 12.5t12.5 33.5t-12.5 33.5t-32.5 12.5q-14 1 -25.5 -6t-17.5 -19h-90l10 219h245v-81z" />
    <glyph glyph-name="uni278F" unicode="&#x278f;" horiz-adv-x="788" 
d="M208.5 660.5q-82.5 -45.5 -129.5 -126.5t-47 -184t47 -184t129.5 -126.5t185.5 -45.5q104 0 186.5 45.5t129.5 126.5t47 184t-47 184t-129.5 126.5t-186.5 45.5q-103 0 -185.5 -45.5zM281 485q44 53 116 53q52 0 90 -30t46 -82h-91q-4 18 -17.5 29t-33.5 11
q-30 0 -48.5 -27t-18.5 -65v-17q10 22 30.5 35.5t52.5 13.5q58 0 93.5 -33t35.5 -88t-39 -89t-104 -34q-73 0 -114.5 49.5t-41.5 132.5q0 88 44 141zM429 320.5q-14 13.5 -36 13.5t-36 -13.5t-14 -35.5t13.5 -35t36.5 -13t36.5 13t13.5 35t-14 35.5z" />
    <glyph glyph-name="uni2790" unicode="&#x2790;" horiz-adv-x="788" 
d="M208.5 660.5q-82.5 -45.5 -129.5 -126.5t-47 -184t47 -184t129.5 -126.5t185.5 -45.5q104 0 186.5 45.5t129.5 126.5t47 184t-47 184t-129.5 126.5t-186.5 45.5q-103 0 -185.5 -45.5zM261 533h273v-76l-139 -289h-104l139 283h-169v82z" />
    <glyph glyph-name="uni2791" unicode="&#x2791;" horiz-adv-x="788" 
d="M208.5 660.5q-82.5 -45.5 -129.5 -126.5t-47 -184t47 -184t129.5 -126.5t185.5 -45.5q104 0 186.5 45.5t129.5 126.5t47 184t-47 184t-129.5 126.5t-186.5 45.5q-103 0 -185.5 -45.5zM259 325q18 23 54 34q-30 13 -45 32.5t-15 49.5q0 43 38 70t103 27t103.5 -27
t38.5 -70q0 -31 -15.5 -50t-44.5 -32q35 -11 53 -34t18 -55q0 -48 -41 -78t-112 -30t-112 30t-41 78q0 32 18 55zM430 458q-14 11 -36 11q-21 0 -35 -11t-14 -29t14 -29t35 -11q23 0 36.5 11t13.5 29t-14 29zM434.5 309.5q-15.5 12.5 -40.5 12.5q-24 0 -40 -12.5t-16 -31.5
q0 -18 16 -30.5t40 -12.5t40 12.5t16 30.5q0 19 -15.5 31.5z" />
    <glyph glyph-name="uni2792" unicode="&#x2792;" horiz-adv-x="788" 
d="M208.5 660.5q-82.5 -45.5 -129.5 -126.5t-47 -184t47 -184t129.5 -126.5t185.5 -45.5q104 0 186.5 45.5t129.5 126.5t47 184t-47 184t-129.5 126.5t-186.5 45.5q-103 0 -185.5 -45.5zM506 215q-44 -53 -116 -53q-52 0 -90 30t-46 82h91q4 -18 17.5 -29t33.5 -11
q31 0 49 25.5t18 66.5v17q-23 -49 -84 -49q-58 0 -93 33t-35 88t39 89t104 34q73 0 114.5 -49.5t41.5 -132.5q0 -88 -44 -141zM358 379.5q14 -13.5 36 -13.5t36 13.5t14 35.5t-13.5 35t-36.5 13t-36.5 -13t-13.5 -35t14 -35.5z" />
    <glyph glyph-name="fl" unicode="&#xfb02;" horiz-adv-x="594" 
d="M82 514v45q0 68 39 104.5t116 36.5h115v-120h-87q-22 0 -32 -10t-10 -32v-24h129v-119h-129v-395h-141v395h-85v119h85zM404 700h141v-700h-141v700z" />
    <glyph glyph-name="u1F10B" unicode="&#x1f10b;" horiz-adv-x="790" 
d="M582 660.5q83 -45.5 130 -126.5t47 -184t-47 -184t-130 -126.5t-187 -45.5t-186.5 45.5t-129.5 126.5t-47 184t47 184t129.5 126.5t186.5 45.5t187 -45.5zM260 584.5q-60 -34.5 -93.5 -96t-33.5 -138.5t33.5 -138.5t93.5 -96t135 -34.5t135 34.5t93.5 96t33.5 138.5
t-33.5 138.5t-93.5 96t-135 34.5t-135 -34.5zM280.5 487.5q41.5 50.5 114.5 50.5t115 -50.5t42 -137.5t-42 -137.5t-115 -50.5t-114.5 50.5t-41.5 137.5t41.5 137.5zM439 426q-16 28 -44 28t-44 -28t-16 -76q0 -49 16 -76.5t44 -27.5t44 27.5t16 76.5q0 48 -16 76z" />
    <glyph glyph-name="u1F10C" unicode="&#x1f10c;" horiz-adv-x="788" 
d="M208.5 660.5q-82.5 -45.5 -129.5 -126.5t-47 -184t47 -184t129.5 -126.5t185.5 -45.5q104 0 186.5 45.5t129.5 126.5t47 184t-47 184t-129.5 126.5t-186.5 45.5q-103 0 -185.5 -45.5zM279.5 487.5q41.5 50.5 114.5 50.5t115 -50.5t42 -137.5t-42 -137.5t-115 -50.5
t-114.5 50.5t-41.5 137.5t41.5 137.5zM438 426q-16 28 -44 28t-44 -28t-16 -76q0 -49 16 -76.5t44 -27.5t44 27.5t16 76.5q0 48 -16 76z" />
    <glyph glyph-name="J.ss06" horiz-adv-x="619" 
d="M171 273q0 -72 30 -112t91 -40q62 0 91.5 37.5t29.5 112.5v429h151v-425q0 -138 -70 -209.5t-202 -71.5q-133 0 -203 70.5t-69 208.5h151z" />
    <glyph glyph-name="Jcircumflex.ss06" horiz-adv-x="619" 
d="M171 273q0 -72 30 -112t91 -40q62 0 91.5 37.5t29.5 112.5v429h151v-425q0 -138 -70 -209.5t-202 -71.5q-133 0 -203 70.5t-69 208.5h151zM490 813l-62 -59h-129l128 142h126l128 -142h-130z" />
    <glyph glyph-name="Q.ss07" horiz-adv-x="757" 
d="M688 179.5q-38 -76.5 -105 -124.5l87 -133h-151l-53 82q-40 -10 -87 -10q-101 0 -180 46t-123 127.5t-44 182.5t44 182.5t123 127.5t180 46t180 -46t123 -127.5t44 -182.5q0 -94 -38 -170.5zM389 121l-71 109h151l38 -58q31 31 48 77t17 101q0 66 -24 118t-68 81.5
t-101 29.5q-58 0 -102 -29.5t-68 -81.5t-24 -118t24 -118t68 -81.5t102 -29.5h10z" />
    <glyph glyph-name="a.ss01" horiz-adv-x="612" 
d="M563 514v-514h-125l-12 72q-61 -77 -160 -77q-68 0 -122 32t-84.5 92t-30.5 139q0 78 30.5 138t85 92.5t122.5 32.5q52 0 92 -20t66 -55l14 68h124zM390 149.5q34 40.5 34 106.5q0 67 -34 108t-91 41t-91.5 -41t-34.5 -108q0 -66 34.5 -106.5t91.5 -40.5t91 40.5z" />
    <glyph glyph-name="a.ss02" horiz-adv-x="546" 
d="M446.5 472.5q59.5 -47.5 59.5 -138.5v-334h-124l-11 65q-29 -35 -66.5 -53t-89.5 -18q-85 0 -135.5 40t-50.5 112q0 82 60.5 126t176.5 44h101v26q0 35 -25.5 55t-68.5 20q-40 0 -65.5 -17t-30.5 -46h-136q7 79 70 122.5t167 43.5q109 0 168.5 -47.5zM334 127.5
q32 31.5 33 84.5v10h-103q-44 0 -68.5 -17.5t-24.5 -49.5q0 -27 20.5 -43t55.5 -16q55 0 87 31.5z" />
    <glyph glyph-name="aacute.ss01" horiz-adv-x="612" 
d="M563 514v-514h-125l-12 72q-61 -77 -160 -77q-68 0 -122 32t-84.5 92t-30.5 139q0 78 30.5 138t85 92.5t122.5 32.5q52 0 92 -20t66 -55l14 68h124zM390 149.5q34 40.5 34 106.5q0 67 -34 108t-91 41t-91.5 -41t-34.5 -108q0 -66 34.5 -106.5t91.5 -40.5t91 40.5z
M254 569l73 141h161l-131 -141h-103z" />
    <glyph glyph-name="aacute.ss02" horiz-adv-x="546" 
d="M446.5 472.5q59.5 -47.5 59.5 -138.5v-334h-124l-11 65q-29 -35 -66.5 -53t-89.5 -18q-85 0 -135.5 40t-50.5 112q0 82 60.5 126t176.5 44h101v26q0 35 -25.5 55t-68.5 20q-40 0 -65.5 -17t-30.5 -46h-136q7 79 70 122.5t167 43.5q109 0 168.5 -47.5zM334 127.5
q32 31.5 33 84.5v10h-103q-44 0 -68.5 -17.5t-24.5 -49.5q0 -27 20.5 -43t55.5 -16q55 0 87 31.5zM228 569l73 141h161l-131 -141h-103z" />
    <glyph glyph-name="abreve.ss01" horiz-adv-x="612" 
d="M563 514v-514h-125l-12 72q-61 -77 -160 -77q-68 0 -122 32t-84.5 92t-30.5 139q0 78 30.5 138t85 92.5t122.5 32.5q52 0 92 -20t66 -55l14 68h124zM390 149.5q34 40.5 34 106.5q0 67 -34 108t-91 41t-91.5 -41t-34.5 -108q0 -66 34.5 -106.5t91.5 -40.5t91 40.5z
M248 710q0 -26 15 -41t40 -15q24 0 39.5 15.5t15.5 40.5h101q-3 -66 -46.5 -106.5t-112.5 -40.5q-66 0 -108 40.5t-45 106.5h101z" />
    <glyph glyph-name="abreve.ss02" horiz-adv-x="546" 
d="M446.5 472.5q59.5 -47.5 59.5 -138.5v-334h-124l-11 65q-29 -35 -66.5 -53t-89.5 -18q-85 0 -135.5 40t-50.5 112q0 82 60.5 126t176.5 44h101v26q0 35 -25.5 55t-68.5 20q-40 0 -65.5 -17t-30.5 -46h-136q7 79 70 122.5t167 43.5q109 0 168.5 -47.5zM334 127.5
q32 31.5 33 84.5v10h-103q-44 0 -68.5 -17.5t-24.5 -49.5q0 -27 20.5 -43t55.5 -16q55 0 87 31.5zM222 710q0 -26 15 -41t40 -15q24 0 39.5 15.5t15.5 40.5h101q-3 -66 -46.5 -106.5t-112.5 -40.5q-66 0 -108 40.5t-45 106.5h101z" />
    <glyph glyph-name="acircumflex.ss01" horiz-adv-x="612" 
d="M563 514v-514h-125l-12 72q-61 -77 -160 -77q-68 0 -122 32t-84.5 92t-30.5 139q0 78 30.5 138t85 92.5t122.5 32.5q52 0 92 -20t66 -55l14 68h124zM390 149.5q34 40.5 34 106.5q0 67 -34 108t-91 41t-91.5 -41t-34.5 -108q0 -66 34.5 -106.5t91.5 -40.5t91 40.5z
M303 627l-62 -59h-129l128 142h126l128 -142h-130z" />
    <glyph glyph-name="acircumflex.ss02" horiz-adv-x="546" 
d="M446.5 472.5q59.5 -47.5 59.5 -138.5v-334h-124l-11 65q-29 -35 -66.5 -53t-89.5 -18q-85 0 -135.5 40t-50.5 112q0 82 60.5 126t176.5 44h101v26q0 35 -25.5 55t-68.5 20q-40 0 -65.5 -17t-30.5 -46h-136q7 79 70 122.5t167 43.5q109 0 168.5 -47.5zM334 127.5
q32 31.5 33 84.5v10h-103q-44 0 -68.5 -17.5t-24.5 -49.5q0 -27 20.5 -43t55.5 -16q55 0 87 31.5zM277 627l-62 -59h-129l128 142h126l128 -142h-130z" />
    <glyph glyph-name="adieresis.ss01" horiz-adv-x="612" 
d="M563 514v-514h-125l-12 72q-61 -77 -160 -77q-68 0 -122 32t-84.5 92t-30.5 139q0 78 30.5 138t85 92.5t122.5 32.5q52 0 92 -20t66 -55l14 68h124zM390 149.5q34 40.5 34 106.5q0 67 -34 108t-91 41t-91.5 -41t-34.5 -108q0 -66 34.5 -106.5t91.5 -40.5t91 40.5z
M144 701q22 21 54 21t53.5 -21t21.5 -52t-21.5 -52t-53.5 -21t-54 21t-22 52t22 52zM354.5 701q21.5 21 53.5 21t54 -21t22 -52t-22 -52t-54 -21t-53.5 21t-21.5 52t21.5 52z" />
    <glyph glyph-name="adieresis.ss02" horiz-adv-x="546" 
d="M446.5 472.5q59.5 -47.5 59.5 -138.5v-334h-124l-11 65q-29 -35 -66.5 -53t-89.5 -18q-85 0 -135.5 40t-50.5 112q0 82 60.5 126t176.5 44h101v26q0 35 -25.5 55t-68.5 20q-40 0 -65.5 -17t-30.5 -46h-136q7 79 70 122.5t167 43.5q109 0 168.5 -47.5zM334 127.5
q32 31.5 33 84.5v10h-103q-44 0 -68.5 -17.5t-24.5 -49.5q0 -27 20.5 -43t55.5 -16q55 0 87 31.5zM118 701q22 21 54 21t53.5 -21t21.5 -52t-21.5 -52t-53.5 -21t-54 21t-22 52t22 52zM328.5 701q21.5 21 53.5 21t54 -21t22 -52t-22 -52t-54 -21t-53.5 21t-21.5 52t21.5 52z
" />
    <glyph glyph-name="agrave.ss01" horiz-adv-x="612" 
d="M563 514v-514h-125l-12 72q-61 -77 -160 -77q-68 0 -122 32t-84.5 92t-30.5 139q0 78 30.5 138t85 92.5t122.5 32.5q52 0 92 -20t66 -55l14 68h124zM390 149.5q34 40.5 34 106.5q0 67 -34 108t-91 41t-91.5 -41t-34.5 -108q0 -66 34.5 -106.5t91.5 -40.5t91 40.5z
M122 710h161l70 -144h-106z" />
    <glyph glyph-name="agrave.ss02" horiz-adv-x="546" 
d="M446.5 472.5q59.5 -47.5 59.5 -138.5v-334h-124l-11 65q-29 -35 -66.5 -53t-89.5 -18q-85 0 -135.5 40t-50.5 112q0 82 60.5 126t176.5 44h101v26q0 35 -25.5 55t-68.5 20q-40 0 -65.5 -17t-30.5 -46h-136q7 79 70 122.5t167 43.5q109 0 168.5 -47.5zM334 127.5
q32 31.5 33 84.5v10h-103q-44 0 -68.5 -17.5t-24.5 -49.5q0 -27 20.5 -43t55.5 -16q55 0 87 31.5zM96 710h161l70 -144h-106z" />
    <glyph glyph-name="amacron.ss01" horiz-adv-x="612" 
d="M563 514v-514h-125l-12 72q-61 -77 -160 -77q-68 0 -122 32t-84.5 92t-30.5 139q0 78 30.5 138t85 92.5t122.5 32.5q52 0 92 -20t66 -55l14 68h124zM390 149.5q34 40.5 34 106.5q0 67 -34 108t-91 41t-91.5 -41t-34.5 -108q0 -66 34.5 -106.5t91.5 -40.5t91 40.5z
M148 599v100h311v-100h-311z" />
    <glyph glyph-name="amacron.ss02" horiz-adv-x="546" 
d="M446.5 472.5q59.5 -47.5 59.5 -138.5v-334h-124l-11 65q-29 -35 -66.5 -53t-89.5 -18q-85 0 -135.5 40t-50.5 112q0 82 60.5 126t176.5 44h101v26q0 35 -25.5 55t-68.5 20q-40 0 -65.5 -17t-30.5 -46h-136q7 79 70 122.5t167 43.5q109 0 168.5 -47.5zM334 127.5
q32 31.5 33 84.5v10h-103q-44 0 -68.5 -17.5t-24.5 -49.5q0 -27 20.5 -43t55.5 -16q55 0 87 31.5zM122 599v100h311v-100h-311z" />
    <glyph glyph-name="aogonek.ss01" horiz-adv-x="612" 
d="M566 -106v-94h-90q-51 0 -85 26.5t-34 70.5q0 36 20.5 65t57.5 55l-9 55q-61 -77 -160 -77q-68 0 -122 32t-84.5 92t-30.5 139q0 78 30.5 138t85 92.5t122.5 32.5q52 0 92 -20t66 -55l14 68h124v-514h1q-47 -21 -71 -40.5t-24 -39.5q0 -26 33 -26h64zM390 149.5
q34 40.5 34 106.5q0 67 -34 108t-91 41t-91.5 -41t-34.5 -108q0 -66 34.5 -106.5t91.5 -40.5t91 40.5z" />
    <glyph glyph-name="aogonek.ss02" horiz-adv-x="546" 
d="M508 -106v-94h-90q-51 0 -85 26.5t-34 70.5q0 37 21 66t59 55l-8 47q-29 -35 -66.5 -53t-89.5 -18q-85 0 -135.5 40t-50.5 112q0 82 60.5 126t176.5 44h101v26q0 35 -25.5 55t-68.5 20q-40 0 -65.5 -17t-30.5 -46h-136q7 79 70 122.5t167 43.5q109 0 168.5 -47.5
t59.5 -138.5v-334q-47 -21 -71 -40.5t-24 -39.5q0 -26 33 -26h64zM334 127.5q32 31.5 33 84.5v10h-103q-44 0 -68.5 -17.5t-24.5 -49.5q0 -27 20.5 -43t55.5 -16q55 0 87 31.5z" />
    <glyph glyph-name="aring.ss01" horiz-adv-x="612" 
d="M563 514v-514h-125l-12 72q-61 -77 -160 -77q-68 0 -122 32t-84.5 92t-30.5 139q0 78 30.5 138t85 92.5t122.5 32.5q52 0 92 -20t66 -55l14 68h124zM390 149.5q34 40.5 34 106.5q0 67 -34 108t-91 41t-91.5 -41t-34.5 -108q0 -66 34.5 -106.5t91.5 -40.5t91 40.5z
M210.5 759.5q37.5 35.5 92.5 35.5t92.5 -35.5t37.5 -85.5q0 -51 -37.5 -86t-92.5 -35t-92.5 35t-37.5 86q0 50 37.5 85.5zM344.5 715.5q-16.5 16.5 -41.5 16.5t-41.5 -16.5t-16.5 -41.5t16.5 -42t41.5 -17t41.5 17t16.5 42t-16.5 41.5z" />
    <glyph glyph-name="aring.ss02" horiz-adv-x="546" 
d="M446.5 472.5q59.5 -47.5 59.5 -138.5v-334h-124l-11 65q-29 -35 -66.5 -53t-89.5 -18q-85 0 -135.5 40t-50.5 112q0 82 60.5 126t176.5 44h101v26q0 35 -25.5 55t-68.5 20q-40 0 -65.5 -17t-30.5 -46h-136q7 79 70 122.5t167 43.5q109 0 168.5 -47.5zM334 127.5
q32 31.5 33 84.5v10h-103q-44 0 -68.5 -17.5t-24.5 -49.5q0 -27 20.5 -43t55.5 -16q55 0 87 31.5zM184.5 759.5q37.5 35.5 92.5 35.5t92.5 -35.5t37.5 -85.5q0 -51 -37.5 -86t-92.5 -35t-92.5 35t-37.5 86q0 50 37.5 85.5zM318.5 715.5q-16.5 16.5 -41.5 16.5t-41.5 -16.5
t-16.5 -41.5t16.5 -42t41.5 -17t41.5 17t16.5 42t-16.5 41.5z" />
    <glyph glyph-name="atilde.ss01" horiz-adv-x="612" 
d="M563 514v-514h-125l-12 72q-61 -77 -160 -77q-68 0 -122 32t-84.5 92t-30.5 139q0 78 30.5 138t85 92.5t122.5 32.5q52 0 92 -20t66 -55l14 68h124zM390 149.5q34 40.5 34 106.5q0 67 -34 108t-91 41t-91.5 -41t-34.5 -108q0 -66 34.5 -106.5t91.5 -40.5t91 40.5z
M237.5 611.5q-9.5 -11.5 -9.5 -27.5h-82v20q0 46 26.5 76.5t68.5 30.5q21 0 35 -6.5t30 -18.5q11 -9 19.5 -13.5t19.5 -4.5q15 0 24 11t9 28h82v-21q0 -46 -27 -76.5t-68 -30.5q-22 0 -36.5 7t-30.5 20q-12 9 -19.5 13t-16.5 4q-15 0 -24.5 -11.5z" />
    <glyph glyph-name="atilde.ss02" horiz-adv-x="546" 
d="M446.5 472.5q59.5 -47.5 59.5 -138.5v-334h-124l-11 65q-29 -35 -66.5 -53t-89.5 -18q-85 0 -135.5 40t-50.5 112q0 82 60.5 126t176.5 44h101v26q0 35 -25.5 55t-68.5 20q-40 0 -65.5 -17t-30.5 -46h-136q7 79 70 122.5t167 43.5q109 0 168.5 -47.5zM334 127.5
q32 31.5 33 84.5v10h-103q-44 0 -68.5 -17.5t-24.5 -49.5q0 -27 20.5 -43t55.5 -16q55 0 87 31.5zM211.5 611.5q-9.5 -11.5 -9.5 -27.5h-82v20q0 46 26.5 76.5t68.5 30.5q21 0 35 -6.5t30 -18.5q11 -9 19.5 -13.5t19.5 -4.5q15 0 24 11t9 28h82v-21q0 -46 -27 -76.5
t-68 -30.5q-22 0 -36.5 7t-30.5 20q-12 9 -19.5 13t-16.5 4q-15 0 -24.5 -11.5z" />
    <glyph glyph-name="f.calt" horiz-adv-x="322" 
d="M88 663.5q39 36.5 116 36.5h115v-120h-87q-42 0 -42 -42v-24h129v-119h-129v-395h-141v559q0 68 39 104.5z" />
    <glyph glyph-name="i.ss03" horiz-adv-x="277" 
d="M216.5 705.5q23.5 -22.5 23.5 -56.5t-23.5 -57t-58.5 -23t-58 23t-23 57t23 56.5t58 22.5t58.5 -22.5zM87 395h-83v119h225v-514h-142v395z" />
    <glyph glyph-name="dotlessi.ss03" horiz-adv-x="278" 
d="M4 514h225v-514h-142v395h-83v119z" />
    <glyph glyph-name="iacute.ss03" horiz-adv-x="278" 
d="M4 514h225v-514h-142v395h-83v119zM103 568l73 141h161l-131 -141h-103z" />
    <glyph glyph-name="ibreve.ss03" horiz-adv-x="278" 
d="M4 514h225v-514h-142v395h-83v119zM97 709q0 -26 15 -41t40 -15q24 0 39.5 15.5t15.5 40.5h101q-3 -66 -46.5 -106.5t-112.5 -40.5q-66 0 -108 40.5t-45 106.5h101z" />
    <glyph glyph-name="icircumflex.ss03" horiz-adv-x="278" 
d="M4 514h225v-514h-142v395h-83v119zM152 626l-62 -59h-129l128 142h126l128 -142h-130z" />
    <glyph glyph-name="idieresis.ss03" horiz-adv-x="278" 
d="M4 514h225v-514h-142v395h-83v119zM-7 700q22 21 54 21t53.5 -21t21.5 -52t-21.5 -52t-53.5 -21t-54 21t-22 52t22 52zM203.5 700q21.5 21 53.5 21t54 -21t22 -52t-22 -52t-54 -21t-53.5 21t-21.5 52t21.5 52z" />
    <glyph glyph-name="i.loclTRK" horiz-adv-x="239" 
d="M49 514h142v-514h-142v514zM62 715.5q23 22.5 58 22.5t58 -22.5t23 -56.5t-23 -56.5t-58 -22.5t-58 22.5t-23 56.5t23 56.5z" />
    <glyph glyph-name="i.loclTRK.ss03" horiz-adv-x="278" 
d="M4 514h225v-514h-142v395h-83v119zM94 714.5q23 22.5 58 22.5t58 -22.5t23 -56.5t-23 -56.5t-58 -22.5t-58 22.5t-23 56.5t23 56.5z" />
    <glyph glyph-name="igrave.ss03" horiz-adv-x="278" 
d="M4 514h225v-514h-142v395h-83v119zM-29 709h161l70 -144h-106z" />
    <glyph glyph-name="ij.ss03" horiz-adv-x="522" 
d="M178 705.5q23 -22.5 23 -56.5t-23 -57t-58 -23t-58.5 23t-23.5 57t23.5 56.5t58.5 22.5t58 -22.5zM49 514h141v-514h-141v514zM344.5 705q23.5 23 58.5 23t58 -23t23 -57t-23 -56.5t-58 -22.5t-58.5 22.5t-23.5 56.5t23.5 57zM275 -81q56 0 56 56v420h-83v119h225v-558
q0 -73 -40 -114.5t-116 -41.5h-98v119h56z" />
    <glyph glyph-name="ij.ss04" horiz-adv-x="478" 
d="M178 705.5q23 -22.5 23 -56.5t-23 -57t-58 -23t-58.5 23t-23.5 57t23.5 56.5t58.5 22.5t58 -22.5zM49 514h141v-514h-141v514zM300.5 705.5q23.5 22.5 58.5 22.5t58 -22.5t23 -56.5t-23 -57t-58 -23t-58.5 23t-23.5 57t23.5 56.5zM288 514h142v-714h-142v714z" />
    <glyph glyph-name="imacron.ss01" horiz-adv-x="278" 
d="M4 514h225v-514h-142v395h-83v119zM-3 598v100h311v-100h-311z" />
    <glyph glyph-name="iogonek.ss03" horiz-adv-x="277" 
d="M100 592q-23 23 -23 57t23 56.5t58 22.5t58.5 -22.5t23.5 -56.5t-23.5 -57t-58.5 -23t-58 23zM167 -106h64v-94h-90q-51 0 -85 26.5t-34 70.5q0 33 17 59.5t48 50.5v388h-83v119h225v-514q-47 -21 -71 -40.5t-24 -39.5q0 -26 33 -26z" />
    <glyph glyph-name="itilde.ss03" horiz-adv-x="278" 
d="M4 514h225v-514h-142v395h-83v119zM86.5 610.5q-9.5 -11.5 -9.5 -27.5h-82v20q0 46 26.5 76.5t68.5 30.5q21 0 35 -6.5t30 -18.5q11 -9 19.5 -13.5t19.5 -4.5q15 0 24 11t9 28h82v-21q0 -46 -27 -76.5t-68 -30.5q-22 0 -36.5 7t-30.5 20q-12 9 -19.5 13t-16.5 4
q-15 0 -24.5 -11.5z" />
    <glyph glyph-name="j.short" horiz-adv-x="244" 
d="M66 705.5q23 22.5 58 22.5t58.5 -22.5t23.5 -56.5t-23.5 -57t-58.5 -23t-58 23t-23 57t23 56.5zM3 -81q26 0 38.5 13.5t12.5 43.5v538h141v-558q0 -73 -38 -114.5t-110 -41.5h-64v119h20z" />
    <glyph glyph-name="j.ss03" horiz-adv-x="283" 
d="M105.5 705q23.5 23 58.5 23t58 -23t23 -57t-23 -56.5t-58 -22.5t-58.5 22.5t-23.5 56.5t23.5 57zM36 -81q56 0 56 56v420h-83v119h225v-558q0 -73 -40 -114.5t-116 -41.5h-98v119h56z" />
    <glyph glyph-name="j.ss04" horiz-adv-x="239" 
d="M61.5 705.5q23.5 22.5 58.5 22.5t58 -22.5t23 -56.5t-23 -57t-58 -23t-58.5 23t-23.5 57t23.5 56.5zM49 514h142v-714h-142v714z" />
    <glyph glyph-name="uni0237.short" horiz-adv-x="244" 
d="M3 -81q26 0 38.5 13.5t12.5 43.5v538h141v-558q0 -73 -38 -114.5t-110 -41.5h-64v119h20z" />
    <glyph glyph-name="uni0237.ss03" horiz-adv-x="283" 
d="M36 -81q56 0 56 56v420h-83v119h225v-558q0 -73 -40 -114.5t-116 -41.5h-98v119h56z" />
    <glyph glyph-name="uni0237.ss04" horiz-adv-x="239" 
d="M49 514h142v-714h-142v714z" />
    <glyph glyph-name="jcircumflex.short" horiz-adv-x="244" 
d="M3 -81q26 0 38.5 13.5t12.5 43.5v538h141v-558q0 -73 -38 -114.5t-110 -41.5h-64v119h20zM123 627l-62 -59h-129l128 142h126l128 -142h-130z" />
    <glyph glyph-name="jcircumflex.ss03" horiz-adv-x="283" 
d="M36 -81q56 0 56 56v420h-83v119h225v-558q0 -73 -40 -114.5t-116 -41.5h-98v119h56zM164 627l-62 -59h-129l128 142h126l128 -142h-130z" />
    <glyph glyph-name="jcircumflex.ss04" horiz-adv-x="239" 
d="M49 514h142v-714h-142v714zM121 627l-62 -59h-129l128 142h126l128 -142h-130z" />
    <glyph glyph-name="t.calt" horiz-adv-x="323" 
d="M49 658h141v-144h117v-119h-117v-225q0 -27 11.5 -39t38.5 -12h73v-119h-117q-147 0 -147 147v511z" />
    <glyph glyph-name="t.ss05" horiz-adv-x="344" 
d="M-3 514h85v144h141v-144h111v-119h-111v-395h-141v395h-85v119z" />
    <glyph glyph-name="tbar.calt" horiz-adv-x="323" 
d="M190 395v-72h117v-103h-117v-50q0 -27 11.5 -39t38.5 -12h73v-119h-117q-147 0 -147 147v511h141v-144h117v-119h-117z" />
    <glyph glyph-name="tbar.ss05" horiz-adv-x="367" 
d="M346 395h-113v-83h113v-102h-113v-210h-142v210h-87v102h87v83h-87v119h87v144h142v-144h113v-119z" />
    <glyph glyph-name="tcaron.calt" horiz-adv-x="336" 
d="M49 658h141v-144h117v-119h-117v-225q0 -27 11.5 -39t38.5 -12h73v-119h-117q-147 0 -147 147v511zM261 705h132l-68 -148h-99z" />
    <glyph glyph-name="tcaron.ss05" horiz-adv-x="373" 
d="M-3 514h85v144h141v-144h111v-119h-111v-395h-141v395h-85v119zM297 703h132l-68 -148h-99z" />
    <glyph glyph-name="uni0163.calt" horiz-adv-x="323" 
d="M49 658h141v-144h117v-119h-117v-225q0 -27 11.5 -39t38.5 -12h73v-119h-117q-147 0 -147 147v511zM112 -48h137l-85 -147h-105z" />
    <glyph glyph-name="uni0163.ss05" horiz-adv-x="344" 
d="M-3 514h85v144h141v-144h111v-119h-111v-395h-141v395h-85v119zM83 -48h137l-85 -147h-105z" />
    <glyph glyph-name="uni021B.calt" horiz-adv-x="323" 
d="M49 658h141v-144h117v-119h-117v-225q0 -27 11.5 -39t38.5 -12h73v-119h-117q-147 0 -147 147v511zM112 -48h137l-85 -147h-105z" />
    <glyph glyph-name="uni021B.ss05" horiz-adv-x="344" 
d="M-3 514h85v144h141v-144h111v-119h-111v-395h-141v395h-85v119zM83 -48h137l-85 -147h-105z" />
    <glyph glyph-name="y.ss01" horiz-adv-x="582" 
d="M533 514v-504q0 -97 -63 -156.5t-195 -59.5q-104 0 -167.5 46t-67.5 133h142q18 -72 105 -72q51 0 79.5 28t28.5 81v64q-28 -36 -63 -55t-87 -19q-91 0 -147.5 53.5t-56.5 182.5v278h141v-261q0 -68 24.5 -101.5t75.5 -33.5q52 0 81 37.5t29 107.5v251h141z" />
    <glyph glyph-name="yacute.ss01" horiz-adv-x="582" 
d="M533 514v-504q0 -97 -63 -156.5t-195 -59.5q-104 0 -167.5 46t-67.5 133h142q18 -72 105 -72q51 0 79.5 28t28.5 81v64q-28 -36 -63 -55t-87 -19q-91 0 -147.5 53.5t-56.5 182.5v278h141v-261q0 -68 24.5 -101.5t75.5 -33.5q52 0 81 37.5t29 107.5v251h141zM238 569
l73 141h161l-131 -141h-103z" />
    <glyph glyph-name="ycircumflex.ss01" horiz-adv-x="582" 
d="M533 514v-504q0 -97 -63 -156.5t-195 -59.5q-104 0 -167.5 46t-67.5 133h142q18 -72 105 -72q51 0 79.5 28t28.5 81v64q-28 -36 -63 -55t-87 -19q-91 0 -147.5 53.5t-56.5 182.5v278h141v-261q0 -68 24.5 -101.5t75.5 -33.5q52 0 81 37.5t29 107.5v251h141zM287 627
l-62 -59h-129l128 142h126l128 -142h-130z" />
    <glyph glyph-name="ydieresis.ss01" horiz-adv-x="582" 
d="M533 514v-504q0 -97 -63 -156.5t-195 -59.5q-104 0 -167.5 46t-67.5 133h142q18 -72 105 -72q51 0 79.5 28t28.5 81v64q-28 -36 -63 -55t-87 -19q-91 0 -147.5 53.5t-56.5 182.5v278h141v-261q0 -68 24.5 -101.5t75.5 -33.5q52 0 81 37.5t29 107.5v251h141zM128 701
q22 21 54 21t53.5 -21t21.5 -52t-21.5 -52t-53.5 -21t-54 21t-22 52t22 52zM338.5 701q21.5 21 53.5 21t54 -21t22 -52t-22 -52t-54 -21t-53.5 21t-21.5 52t21.5 52z" />
    <glyph glyph-name="ygrave.ss01" horiz-adv-x="582" 
d="M533 514v-504q0 -97 -63 -156.5t-195 -59.5q-104 0 -167.5 46t-67.5 133h142q18 -72 105 -72q51 0 79.5 28t28.5 81v64q-28 -36 -63 -55t-87 -19q-91 0 -147.5 53.5t-56.5 182.5v278h141v-261q0 -68 24.5 -101.5t75.5 -33.5q52 0 81 37.5t29 107.5v251h141zM106 710h161
l70 -144h-106z" />
    <glyph glyph-name="w_w_w" horiz-adv-x="2172" 
d="M2028 514h144l-169 -514h-150l-90 310l-92 -310h-150l-97 296l-97 -296h-150l-90 310l-92 -310h-150l-97 297l-98 -297h-150l-90 310l-92 -310h-150l-168 514h149l103 -362l97 362h127l94 -363l105 363h151l103 -362l97 362h127l94 -363l105 363h150l103 -362l97 362h127
l94 -363z" />
    <glyph glyph-name="zero.osf" horiz-adv-x="621" 
d="M66 392.5q36 59.5 100 93.5t145 34q80 0 144 -34t100 -93.5t36 -135.5t-36 -136t-99.5 -93.5t-144.5 -33.5t-145 33.5t-100 93.5t-36 136t36 135.5zM408.5 360q-38.5 41 -97.5 41q-60 0 -98.5 -41t-38.5 -103q0 -63 38.5 -104t98.5 -41q59 0 97.5 41.5t38.5 103.5
t-38.5 103z" />
    <glyph glyph-name="one.osf" horiz-adv-x="339" 
d="M96 408q26 0 40 19.5t14 49.5v37h138v-514h-142v295q-21 -4 -51 -4h-87v117h88z" />
    <glyph glyph-name="two.osf" horiz-adv-x="524" 
d="M495 113v-113h-465v106l220 118q50 26 74 50t24 56q0 34 -24.5 54.5t-65.5 20.5t-67.5 -25.5t-26.5 -66.5v-12h-140v12q0 58 28.5 105t82.5 74.5t127 27.5q68 0 120.5 -23.5t81 -65.5t28.5 -97q0 -48 -31.5 -88t-86.5 -67l-133 -66h254z" />
    <glyph glyph-name="three.osf" horiz-adv-x="578" 
d="M548 15q0 -60 -32 -105.5t-91.5 -70.5t-138.5 -25q-123 0 -194 63.5t-72 176.5h143q1 -61 34.5 -95t88.5 -34q50 0 83.5 27.5t33.5 70.5q0 42 -31 66t-88 24h-61v113h54q52 0 82 25t30 65q0 44 -29 68t-76 24t-77.5 -29.5t-31.5 -79.5h-140q1 102 69 161.5t182 59.5
q116 0 181.5 -51.5t65.5 -136.5q0 -61 -37 -99.5t-101 -56.5q153 -34 153 -161z" />
    <glyph glyph-name="four.osf" horiz-adv-x="593" 
d="M316 514h176v-395h88v-119h-88v-180h-136v180h-338v119zM356 381l-195 -262h195v262z" />
    <glyph glyph-name="five.osf" horiz-adv-x="588" 
d="M447.5 255.5q51.5 -30.5 81 -84.5t29.5 -122q0 -75 -34.5 -128t-93 -80t-130.5 -27q-76 0 -133.5 29t-89.5 79t-35 112h142q5 -45 36.5 -75t79.5 -30q50 0 82 33.5t32 87.5q0 53 -31.5 87t-82.5 34q-76 0 -109 -73l-140 1l20 415h445v-121h-322l-8 -164q29 30 64 43.5
t81 13.5q65 0 116.5 -30.5z" />
    <glyph glyph-name="six.osf" horiz-adv-x="598" 
d="M486.5 641.5q64.5 -52.5 76.5 -148.5h-141q-13 41 -41 63.5t-72 22.5q-69 0 -105.5 -50t-36.5 -141v-19l10 16q53 70 160 70q69 0 121 -29t80.5 -81t28.5 -120t-34 -120.5t-93 -81.5t-133 -29q-133 0 -209 101q-32 42 -49.5 106.5t-17.5 138.5q0 168 74.5 261t209.5 93
q107 0 171.5 -52.5zM228.5 311.5q-32.5 -32.5 -32.5 -82.5q0 -54 31.5 -88.5t82.5 -34.5q50 0 81.5 33t31.5 85t-31 86t-81 34t-82.5 -32.5z" />
    <glyph glyph-name="seven.osf" horiz-adv-x="536" 
d="M15 514h499v-114l-295 -580h-156l294 574h-342v120z" />
    <glyph glyph-name="eight.osf" horiz-adv-x="594" 
d="M524 302.5q40 -42.5 40 -115.5q0 -57 -31 -100.5t-91.5 -68t-144.5 -24.5q-85 0 -145 24.5t-91 68t-31 100.5q0 72 39.5 113.5t102.5 57.5q-53 16 -87.5 54.5t-34.5 99.5q0 54 29.5 95t85.5 64t132 23t132 -23t85.5 -64t29.5 -95q0 -57 -35.5 -97t-86.5 -55
q62 -15 102 -57.5zM221.5 572q-29.5 -25 -29.5 -65q0 -41 29.5 -66.5t75.5 -25.5t75.5 25.5t29.5 66.5q0 40 -29.5 65t-75.5 25t-75.5 -25zM385 123.5q35 29.5 35 75.5t-35 76t-88 30t-88 -30t-35 -76t35 -75.5t88 -29.5t88 29.5z" />
    <glyph glyph-name="nine.osf" horiz-adv-x="598" 
d="M550 311q17 -64 17 -139q0 -170 -74.5 -264t-209.5 -94q-107 0 -171.5 52.5t-76.5 148.5h141q13 -41 41 -63.5t72 -22.5q70 0 106 52t36 145v18l-13 -20q-26 -34 -66.5 -50t-90.5 -16q-69 0 -121 29t-80.5 81t-28.5 119q0 68 34 121t93 82t133 29q132 0 209 -102
q33 -42 50 -106zM205 202.5q31 -33.5 81 -33.5q51 0 83.5 33.5t32.5 84.5q0 52 -31.5 85.5t-82.5 33.5t-82.5 -33.5t-31.5 -84.5q0 -52 31 -85.5z" />
    <glyph glyph-name="one.osf.ss08" 
d="M564 117v-117h-478v117h170v180q-27 -5 -51 -5h-111v115h112q26 0 39.5 19t13.5 49v39h138v-397h167z" />
    <glyph glyph-name="seven.osf.ss08" horiz-adv-x="556" 
d="M29 514h505v-114l-294 -580h-156l293 574h-225v-106h-123v226z" />
    <glyph glyph-name="four.osf.ss09" horiz-adv-x="551" 
d="M323 514h176v-694h-136v180h-345v119zM363 382l-199 -263h199v263z" />
    <glyph glyph-name="zero.osf.zero" horiz-adv-x="621" 
d="M455 486q64 -34 100 -93.5t36 -135.5t-36 -136t-99.5 -93.5t-144.5 -33.5t-145 33.5t-100 93.5t-36 136t36 135.5t100 93.5t145 34q80 0 144 -34zM210.5 363q-39.5 -42 -39.5 -106q0 -38 16 -73l196 202q-33 19 -72 19q-61 0 -100.5 -42zM411 151q39 42 39 106
q0 41 -17 73l-194 -202q32 -19 72 -19q61 0 100 42z" />
    <glyph glyph-name="one.ss08" horiz-adv-x="572" 
d="M523 122v-122h-477v120l168 1v325q-15 -4 -35 -4h-121v119h105q26 0 39.5 20.5t13.5 50.5v68h141v-579z" />
    <glyph glyph-name="seven.ss08" horiz-adv-x="554" 
d="M533 700v-93l-296 -607h-149l293 578h-226v-104h-121v226h499z" />
    <glyph glyph-name="four.ss09" horiz-adv-x="585" 
d="M337 700h185v-700h-144v151h-357v122zM378 562l-217 -289h217v289z" />
    <glyph glyph-name="zero.tf" 
d="M28 367q0 99 33 176.5t94.5 120.5t144.5 43t144.5 -43t94.5 -120.5t33 -176.5v-32q0 -99 -33 -176.5t-94.5 -120.5t-144.5 -43t-144.5 43t-94.5 120.5t-33 176.5v32zM428 362q0 102 -33 164t-95 62t-95 -62t-33 -164v-22q0 -102 33 -163.5t95 -61.5t95 61.5t33 163.5v22z
" />
    <glyph glyph-name="one.tf" 
d="M551 122v-122h-477v120l168 1v325q-15 -4 -35 -4h-121v119h105q26 0 39.5 20.5t13.5 50.5v68h141v-579z" />
    <glyph glyph-name="two.tf" horiz-adv-x="588" 
d="M302 331q51 41 75 75t24 74q0 51 -30.5 78.5t-81.5 27.5q-49 0 -79.5 -33t-30.5 -89v-11h-145v19q0 66 31.5 120t89.5 84.5t134 30.5q123 0 190.5 -60t67.5 -161q0 -72 -35.5 -124.5t-109.5 -112.5l-157 -128h305v-121h-513v111z" />
    <glyph glyph-name="three.tf" horiz-adv-x="610" 
d="M526 306.5q43 -41.5 43 -111.5q0 -60 -33.5 -105.5t-95.5 -70.5t-144 -25q-125 0 -198 63.5t-73 175.5h143q1 -58 39 -92t97 -34q51 0 84.5 27t33.5 73q0 42 -33 66t-95 24h-69v115h61q58 0 89.5 25.5t31.5 68.5q0 41 -29 64t-76 23q-51 0 -84 -28t-34 -76h-141
q1 101 69.5 159t183.5 58q121 0 188.5 -51t67.5 -136q0 -62 -37.5 -101t-99.5 -54q68 -16 111 -57.5z" />
    <glyph glyph-name="four.tf" horiz-adv-x="623" 
d="M7 269l309 431h178v-430h97v-120h-97v-150h-141v150h-346v119zM144 270h209v290z" />
    <glyph glyph-name="five.tf" horiz-adv-x="601" 
d="M455.5 446.5q53.5 -30.5 84 -85t30.5 -124.5q0 -78 -35.5 -132.5t-95.5 -82.5t-134 -28q-79 0 -139 30.5t-93 83t-36 117.5h143q6 -49 40.5 -81t84.5 -32q49 0 84.5 32.5t35.5 92.5q0 55 -33 90.5t-87 35.5q-36 0 -70 -16.5t-48 -56.5h-139l20 410h459v-121h-328l-8 -156
q57 54 145 54q66 0 119.5 -30.5z" />
    <glyph glyph-name="six.tf" horiz-adv-x="616" 
d="M44.5 210q-16.5 61 -16.5 133q0 115 35 197t100 124.5t153 42.5q100 0 169 -55t81 -149h-142q-10 42 -41 65t-78 23q-68 0 -104.5 -52.5t-36.5 -149.5v-17l9 15q25 38 68.5 60t96.5 22q70 0 123.5 -30t83.5 -83.5t30 -123.5q0 -71 -32.5 -125t-92 -83.5t-136.5 -29.5
q-72 0 -128.5 28.5t-93.5 81.5q-31 45 -47.5 106zM400 322q-32 35 -85 35t-86.5 -35t-33.5 -90t32.5 -90t85.5 -35t86 35.5t33 89.5q0 55 -32 90z" />
    <glyph glyph-name="seven.tf" horiz-adv-x="570" 
d="M44 700h513v-93l-308 -607h-156l306 578h-355v122z" />
    <glyph glyph-name="eight.tf" horiz-adv-x="608" 
d="M530.5 308q41.5 -44 41.5 -118q0 -58 -31.5 -102.5t-92 -69t-145.5 -24.5t-145.5 24.5t-92 69t-31.5 102.5q0 73 41 117t105 58q-54 15 -90 55t-36 102q0 55 29.5 97t86 65t133.5 23t133.5 -23t86 -65t29.5 -97q0 -58 -36.5 -100.5t-89.5 -56.5q63 -13 104.5 -57z
M225 580q-30 -25 -30 -65q0 -41 30 -66.5t78 -25.5q47 0 77.5 26t30.5 66t-30.5 65t-77.5 25q-48 0 -78 -25zM392 124.5q36 29.5 36 74.5q0 46 -36 76.5t-89 30.5q-54 0 -90 -30.5t-36 -76.5q0 -45 36 -74.5t90 -29.5q53 0 89 29.5z" />
    <glyph glyph-name="nine.tf" horiz-adv-x="616" 
d="M557 496.5q18 -63.5 18 -138.5q0 -174 -75 -269t-213 -95q-108 0 -174.5 53.5t-78.5 150.5h141q10 -42 40.5 -65t78.5 -23q70 0 106.5 53t36.5 149v18q-14 -20 -16 -22q-25 -35 -65.5 -54.5t-90.5 -19.5q-70 0 -124 29t-83.5 82t-29.5 123q0 69 32.5 123.5t92 85
t136.5 30.5q70 0 124.5 -26.5t91.5 -75.5q34 -45 52 -108.5zM203 381q32 -35 85 -35t86.5 35t33.5 89t-32.5 89t-85.5 35t-86 -35t-33 -89t32 -89z" />
    <glyph glyph-name="seven.tf.ss08" horiz-adv-x="570" 
d="M559 700v-93l-296 -607h-149l293 578h-226v-104h-121v226h499z" />
    <glyph glyph-name="four.tf.ss09" 
d="M345 700h185v-700h-144v151h-357v122zM386 562l-217 -289h217v289z" />
    <glyph glyph-name="zero.tf.zero" 
d="M444.5 664q61.5 -43 94.5 -120.5t33 -176.5v-32q0 -99 -33 -176.5t-94.5 -120.5t-144.5 -43t-144.5 43t-94.5 120.5t-33 176.5v32q0 99 33 176.5t94.5 120.5t144.5 43t144.5 -43zM169 340q0 -37 4 -65l232 241q-35 78 -105 78q-63 0 -97 -63.5t-34 -168.5v-22zM431 362
q0 32 -3 62l-231 -241q35 -74 103 -74q63 0 97 63t34 168v22z" />
    <glyph glyph-name="zero.tosf" 
d="M63 392.5q35 59.5 97 93.5t140 34t140 -34t97 -93.5t35 -135.5t-35 -135.5t-97 -93.5t-140 -34t-140 34t-97 93.5t-35 135.5t35 135.5zM393 360.5q-36 40.5 -93 40.5q-56 0 -92.5 -41t-36.5 -103q0 -63 36.5 -104t92.5 -41q57 0 93 41t36 104t-36 103.5z" />
    <glyph glyph-name="one.tosf" 
d="M564 117v-117h-478v117h170v180q-27 -5 -51 -5h-111v115h112q26 0 39.5 19t13.5 49v39h138v-397h167z" />
    <glyph glyph-name="two.tosf" 
d="M540 113v-113h-465v106l220 118q50 26 74 50t24 56q0 34 -24.5 54.5t-65.5 20.5t-67.5 -25.5t-26.5 -66.5v-12h-140v12q0 58 28.5 105t82.5 74.5t127 27.5q68 0 120.5 -23.5t81 -65.5t28.5 -97q0 -48 -31.5 -88t-86.5 -67l-133 -66h254z" />
    <glyph glyph-name="three.tosf" 
d="M528 121.5q43 -41.5 43 -111.5q0 -60 -33.5 -105.5t-95.5 -70.5t-144 -25q-125 0 -198 63.5t-73 175.5h143q1 -58 39 -92t97 -34q51 0 84.5 27t33.5 73q0 42 -33 66t-95 24h-69v115h61q58 0 89.5 25.5t31.5 68.5q0 41 -29 64t-76 23q-51 0 -84 -28t-34 -76h-141
q1 101 69.5 159t183.5 58q121 0 188.5 -51t67.5 -136q0 -62 -37.5 -101t-99.5 -54q68 -16 111 -57.5z" />
    <glyph glyph-name="four.tosf" 
d="M316 514h176v-395h88v-119h-88v-180h-136v180h-338v119zM356 381l-195 -262h195v262z" />
    <glyph glyph-name="five.tosf" 
d="M452.5 255.5q51.5 -30.5 81 -84.5t29.5 -122q0 -75 -34.5 -128t-93 -80t-130.5 -27q-76 0 -133.5 29t-89.5 79t-35 112h142q5 -45 36.5 -75t79.5 -30q50 0 82 33.5t32 87.5q0 53 -31.5 87t-82.5 34q-76 0 -109 -73l-140 1l20 415h445v-121h-322l-8 -164q29 30 64 43.5
t81 13.5q65 0 116.5 -30.5z" />
    <glyph glyph-name="six.tosf" 
d="M487.5 641.5q64.5 -52.5 76.5 -148.5h-141q-13 41 -41 63.5t-72 22.5q-69 0 -105.5 -50t-36.5 -141v-19l10 16q53 70 160 70q69 0 121 -29t80.5 -81t28.5 -120t-34 -120.5t-93 -81.5t-133 -29q-133 0 -209 101q-32 42 -49.5 106.5t-17.5 138.5q0 168 74.5 261t209.5 93
q107 0 171.5 -52.5zM229.5 311.5q-32.5 -32.5 -32.5 -82.5q0 -54 31.5 -88.5t82.5 -34.5q50 0 81.5 33t31.5 85t-31 86t-81 34t-82.5 -32.5z" />
    <glyph glyph-name="seven.tosf" 
d="M45 514h499v-114l-295 -580h-156l294 574h-342v120z" />
    <glyph glyph-name="eight.tosf" 
d="M527 302.5q40 -42.5 40 -115.5q0 -57 -31 -100.5t-91.5 -68t-144.5 -24.5q-85 0 -145 24.5t-91 68t-31 100.5q0 72 39.5 113.5t102.5 57.5q-53 16 -87.5 54.5t-34.5 99.5q0 54 29.5 95t85.5 64t132 23t132 -23t85.5 -64t29.5 -95q0 -57 -35.5 -97t-86.5 -55
q62 -15 102 -57.5zM224.5 572q-29.5 -25 -29.5 -65q0 -41 29.5 -66.5t75.5 -25.5t75.5 25.5t29.5 66.5q0 40 -29.5 65t-75.5 25t-75.5 -25zM388 123.5q35 29.5 35 75.5t-35 76t-88 30t-88 -30t-35 -76t35 -75.5t88 -29.5t88 29.5z" />
    <glyph glyph-name="nine.tosf" 
d="M551 311q17 -64 17 -139q0 -170 -74.5 -264t-209.5 -94q-107 0 -171.5 52.5t-76.5 148.5h141q13 -41 41 -63.5t72 -22.5q70 0 106 52t36 145v18l-13 -20q-26 -34 -66.5 -50t-90.5 -16q-69 0 -121 29t-80.5 81t-28.5 119q0 68 34 121t93 82t133 29q132 0 209 -102
q33 -42 50 -106zM206 202.5q31 -33.5 81 -33.5q51 0 83.5 33.5t32.5 84.5q0 52 -31.5 85.5t-82.5 33.5t-82.5 -33.5t-31.5 -84.5q0 -52 31 -85.5z" />
    <glyph glyph-name="seven.tosf.ss08" horiz-adv-x="577" 
d="M42 514h505v-114l-294 -580h-156l293 574h-225v-106h-123v226z" />
    <glyph glyph-name="four.tosf.ss09" 
d="M345 514h185v-700h-144v151h-357v122zM386 376l-217 -289h217v289z" />
    <glyph glyph-name="zero.tosf.zero" 
d="M440 486q62 -34 97 -93.5t35 -135.5t-35 -135.5t-97 -93.5t-140 -34t-140 34t-97 93.5t-35 135.5t35 135.5t97 93.5t140 34t140 -34zM205.5 362.5q-37.5 -41.5 -37.5 -105.5q0 -35 13 -68l189 195q-31 20 -70 20q-57 0 -94.5 -41.5zM395 150.5q37 41.5 37 106.5
q0 37 -14 68l-188 -195q30 -21 70 -21q58 0 95 41.5z" />
    <glyph glyph-name="zero.zero" horiz-adv-x="646" 
d="M473.5 664.5q65.5 -41.5 102 -118.5t36.5 -180v-32q0 -105 -36.5 -181.5t-102 -117.5t-150.5 -41t-150 41t-101.5 117.5t-36.5 181.5v32q0 103 36.5 180t102 118.5t149.5 41.5q85 0 150.5 -41.5zM176 339q0 -46 7 -78l251 261q-19 32 -47.5 49t-63.5 17q-67 0 -107 -59.5
t-40 -167.5v-22zM470 361q0 46 -7 78l-250 -262q39 -65 110 -65q67 0 107 59.5t40 167.5v22z" />
    <glyph glyph-name="u1F10C.zero" horiz-adv-x="788" 
d="M208.5 660.5q-82.5 -45.5 -129.5 -126.5t-47 -184t47 -184t129.5 -126.5t185.5 -45.5q104 0 186.5 45.5t129.5 126.5t47 184t-47 184t-129.5 126.5t-186.5 45.5q-103 0 -185.5 -45.5zM509 487.5q42 -50.5 42 -137.5t-42 -137.5t-115 -50.5t-114.5 50.5t-41.5 137.5
t41.5 137.5t114.5 50.5t115 -50.5zM348.5 427.5q-16.5 -28.5 -16.5 -77.5q0 -19 3 -37l101 119q-15 24 -42 24q-29 0 -45.5 -28.5zM439.5 272q16.5 28 16.5 78q0 20 -3 36l-101 -119q17 -23 42 -23q29 0 45.5 28z" />
    <glyph glyph-name="u1F10B.zero" horiz-adv-x="790" 
d="M582 660.5q83 -45.5 130 -126.5t47 -184t-47 -184t-130 -126.5t-187 -45.5t-186.5 45.5t-129.5 126.5t-47 184t47 184t129.5 126.5t186.5 45.5t187 -45.5zM260 584.5q-60 -34.5 -93.5 -96t-33.5 -138.5t33.5 -138.5t93.5 -96t135 -34.5t135 34.5t93.5 96t33.5 138.5
t-33.5 138.5t-93.5 96t-135 34.5t-135 -34.5zM510 487.5q42 -50.5 42 -137.5t-42 -137.5t-115 -50.5t-114.5 50.5t-41.5 137.5t41.5 137.5t114.5 50.5t115 -50.5zM349.5 427.5q-16.5 -28.5 -16.5 -77.5q0 -19 3 -37l101 119q-15 24 -42 24q-29 0 -45.5 -28.5zM440.5 272
q16.5 28 16.5 78q0 20 -3 36l-101 -119q17 -23 42 -23q29 0 45.5 28z" />
    <glyph glyph-name="zero.dnom" horiz-adv-x="348" 
d="M59.5 319.5q41.5 50.5 114.5 50.5t115 -50.5t42 -137.5t-42 -137.5t-115 -50.5t-114.5 50.5t-41.5 137.5t41.5 137.5zM218 258q-16 28 -44 28t-44 -28t-16 -76q0 -49 16 -76.5t44 -27.5t44 27.5t16 76.5q0 48 -16 76z" />
    <glyph glyph-name="one.dnom" horiz-adv-x="203" 
d="M81 0v216q-7 -3 -19 -3h-62v85h57q12 0 19 10.5t7 25.5v30h92v-364h-94z" />
    <glyph glyph-name="two.dnom" horiz-adv-x="327" 
d="M16 232q0 62 41 100t102 38q66 0 106.5 -34t40.5 -89q0 -37 -18 -61.5t-49 -46.5l-74 -53h145v-86h-290v81l146 101q19 14 30 29t11 34q0 18 -13 29.5t-34 11.5q-23 0 -36.5 -14.5t-13.5 -43.5v-3h-94v7z" />
    <glyph glyph-name="three.dnom" horiz-adv-x="336" 
d="M65 337.5q38 32.5 105 32.5q65 0 102 -28t37 -73q0 -30 -17.5 -50t-43.5 -28q33 -7 52 -28.5t19 -54.5q0 -53 -41 -83.5t-113 -30.5q-73 0 -111.5 33.5t-39.5 96.5h96q3 -48 54 -48q23 0 37.5 10.5t14.5 28.5t-14.5 28.5t-41.5 10.5h-20v63h22q22 0 36 9.5t14 25.5
q0 17 -12 26.5t-32 9.5q-22 0 -35 -11t-14 -30h-94q2 58 40 90.5z" />
    <glyph glyph-name="four.dnom" horiz-adv-x="353" 
d="M164 364h118v-201h54v-83h-54v-80h-93v80h-172v83zM189 273l-81 -110h81v110z" />
    <glyph glyph-name="five.dnom" horiz-adv-x="318" 
d="M281 283h-170l-4 -63q28 26 71 26q55 0 88.5 -33.5t33.5 -88.5q0 -58 -39 -94t-102 -36q-58 0 -95.5 32t-42.5 85h93q3 -15 15.5 -24t30.5 -9q19 0 31.5 12.5t12.5 33.5t-12.5 33.5t-32.5 12.5q-14 1 -25.5 -6t-17.5 -19h-90l10 219h245v-81z" />
    <glyph glyph-name="six.dnom" horiz-adv-x="331" 
d="M60 317q44 53 116 53q52 0 90 -30t46 -82h-91q-4 18 -17.5 29t-33.5 11q-30 0 -48.5 -27t-18.5 -65v-17q10 22 30.5 35.5t52.5 13.5q58 0 93.5 -33t35.5 -88t-39 -89t-104 -34q-73 0 -114.5 49.5t-41.5 132.5q0 88 44 141zM208 152.5q-14 13.5 -36 13.5t-36 -13.5
t-14 -35.5t13.5 -35t36.5 -13t36.5 13t13.5 35t-14 35.5z" />
    <glyph glyph-name="seven.dnom" horiz-adv-x="301" 
d="M15 365h273v-76l-139 -289h-104l139 283h-169v82z" />
    <glyph glyph-name="eight.dnom" horiz-adv-x="339" 
d="M35 157q18 23 54 34q-30 13 -45 32.5t-15 49.5q0 43 38 70t103 27t103.5 -27t38.5 -70q0 -31 -15.5 -50t-44.5 -32q35 -11 53 -34t18 -55q0 -48 -41 -78t-112 -30t-112 30t-41 78q0 32 18 55zM206 290q-14 11 -36 11q-21 0 -35 -11t-14 -29t14 -29t35 -11q23 0 36.5 11
t13.5 29t-14 29zM210.5 141.5q-15.5 12.5 -40.5 12.5q-24 0 -40 -12.5t-16 -31.5q0 -18 16 -30.5t40 -12.5t40 12.5t16 30.5q0 19 -15.5 31.5z" />
    <glyph glyph-name="nine.dnom" horiz-adv-x="331" 
d="M271 47q-44 -53 -116 -53q-52 0 -90 30t-46 82h91q4 -18 17.5 -29t33.5 -11q31 0 49 25.5t18 66.5v17q-23 -49 -84 -49q-58 0 -93 33t-35 88t39 89t104 34q73 0 114.5 -49.5t41.5 -132.5q0 -88 -44 -141zM123 211.5q14 -13.5 36 -13.5t36 13.5t14 35.5t-13.5 35t-36.5 13
t-36.5 -13t-13.5 -35t14 -35.5z" />
    <glyph glyph-name="zero.numr" horiz-adv-x="348" 
d="M59.5 656.5q41.5 50.5 114.5 50.5t115 -50.5t42 -137.5t-42 -137.5t-115 -50.5t-114.5 50.5t-41.5 137.5t41.5 137.5zM218 595q-16 28 -44 28t-44 -28t-16 -76q0 -49 16 -76.5t44 -27.5t44 27.5t16 76.5q0 48 -16 76z" />
    <glyph glyph-name="one.numr" horiz-adv-x="203" 
d="M81 336v216q-8 -3 -19 -3h-62v85h57q12 0 19 10.5t7 25.5v30h92v-364h-94z" />
    <glyph glyph-name="two.numr" horiz-adv-x="327" 
d="M16 568q0 62 41 100t102 38q66 0 106.5 -34t40.5 -89q0 -37 -18 -61.5t-49 -46.5l-74 -53h145v-86h-290v81l146 101q19 14 30 29t11 34q0 18 -13 29.5t-34 11.5q-23 0 -36.5 -14.5t-13.5 -43.5v-3h-94v7z" />
    <glyph glyph-name="three.numr" horiz-adv-x="336" 
d="M65 674.5q38 32.5 105 32.5q65 0 102 -28t37 -73q0 -30 -17.5 -50t-43.5 -28q33 -7 52 -28.5t19 -54.5q0 -53 -41 -83.5t-113 -30.5q-73 0 -111.5 33.5t-39.5 96.5h96q3 -48 54 -48q23 0 37.5 10.5t14.5 28.5t-14.5 28.5t-41.5 10.5h-20v63h22q22 0 36 9.5t14 25.5
q0 17 -12 26.5t-32 9.5q-22 0 -35 -11t-14 -30h-94q2 58 40 90.5z" />
    <glyph glyph-name="four.numr" horiz-adv-x="353" 
d="M164 700h118v-201h54v-83h-54v-80h-93v80h-172v83zM189 609l-81 -110h81v110z" />
    <glyph glyph-name="five.numr" horiz-adv-x="318" 
d="M281 619h-170l-4 -63q28 26 71 26q55 0 88.5 -33.5t33.5 -88.5q0 -58 -39 -94t-102 -36q-58 0 -95.5 32t-42.5 85h93q3 -15 15.5 -24t30.5 -9q19 0 31.5 12.5t12.5 33.5t-12.5 33.5t-32.5 12.5q-14 1 -25.5 -6t-17.5 -19h-90l10 219h245v-81z" />
    <glyph glyph-name="six.numr" horiz-adv-x="331" 
d="M60 654q44 53 116 53q52 0 90 -30t46 -82h-91q-4 18 -17.5 29t-33.5 11q-30 0 -48.5 -27t-18.5 -65v-17q10 22 30.5 35.5t52.5 13.5q58 0 93.5 -33t35.5 -88t-39 -89t-104 -34q-73 0 -114.5 49.5t-41.5 132.5q0 88 44 141zM208 489.5q-14 13.5 -36 13.5t-36 -13.5
t-14 -35.5t13.5 -35t36.5 -13t36.5 13t13.5 35t-14 35.5z" />
    <glyph glyph-name="seven.numr" horiz-adv-x="301" 
d="M15 700h273v-76l-139 -289h-104l139 283h-169v82z" />
    <glyph glyph-name="eight.numr" horiz-adv-x="339" 
d="M35 494q18 23 54 34q-30 13 -45 32.5t-15 49.5q0 43 38 70t103 27t103.5 -27t38.5 -70q0 -31 -15.5 -50t-44.5 -32q35 -11 53 -34t18 -55q0 -48 -41 -78t-112 -30t-112 30t-41 78q0 32 18 55zM206 627q-14 11 -36 11q-21 0 -35 -11t-14 -29t14 -29t35 -11q23 0 36.5 11
t13.5 29t-14 29zM210.5 478.5q-15.5 12.5 -40.5 12.5q-24 0 -40 -12.5t-16 -31.5q0 -18 16 -30.5t40 -12.5t40 12.5t16 30.5q0 19 -15.5 31.5z" />
    <glyph glyph-name="nine.numr" horiz-adv-x="331" 
d="M271 384q-44 -53 -116 -53q-52 0 -90 30t-46 82h91q4 -18 17.5 -29t33.5 -11q31 0 49 25.5t18 66.5v17q-23 -49 -84 -49q-58 0 -93 33t-35 88t39 89t104 34q73 0 114.5 -49.5t41.5 -132.5q0 -88 -44 -141zM123 548.5q14 -13.5 36 -13.5t36 13.5t14 35.5t-13.5 35
t-36.5 13t-36.5 -13t-13.5 -35t14 -35.5z" />
    <glyph glyph-name="uni2080.zero" horiz-adv-x="348" 
d="M289 219.5q42 -50.5 42 -137.5t-42 -137.5t-115 -50.5t-114.5 50.5t-41.5 137.5t41.5 137.5t114.5 50.5t115 -50.5zM128.5 159.5q-16.5 -28.5 -16.5 -77.5q0 -19 3 -37l101 119q-15 24 -42 24q-29 0 -45.5 -28.5zM219.5 4q16.5 28 16.5 78q0 20 -3 36l-101 -119
q17 -23 42 -23q29 0 45.5 28z" />
    <glyph glyph-name="zero.dnom.zero" horiz-adv-x="348" 
d="M289 319.5q42 -50.5 42 -137.5t-42 -137.5t-115 -50.5t-114.5 50.5t-41.5 137.5t41.5 137.5t114.5 50.5t115 -50.5zM128.5 259.5q-16.5 -28.5 -16.5 -77.5q0 -19 3 -37l101 119q-15 24 -42 24q-29 0 -45.5 -28.5zM219.5 104q16.5 28 16.5 78q0 20 -3 36l-101 -119
q17 -23 42 -23q29 0 45.5 28z" />
    <glyph glyph-name="zero.numr.zero" horiz-adv-x="348" 
d="M289 656.5q42 -50.5 42 -137.5t-42 -137.5t-115 -50.5t-114.5 50.5t-41.5 137.5t41.5 137.5t114.5 50.5t115 -50.5zM128.5 596.5q-16.5 -28.5 -16.5 -77.5q0 -19 3 -37l101 119q-15 24 -42 24q-29 0 -45.5 -28.5zM219.5 441q16.5 28 16.5 78q0 20 -3 36l-101 -119
q17 -23 42 -23q29 0 45.5 28z" />
    <glyph glyph-name="uni2070.zero" horiz-adv-x="348" 
d="M289 756.5q42 -50.5 42 -137.5t-42 -137.5t-115 -50.5t-114.5 50.5t-41.5 137.5t41.5 137.5t114.5 50.5t115 -50.5zM128.5 696.5q-16.5 -28.5 -16.5 -77.5q0 -19 3 -37l101 119q-15 24 -42 24q-29 0 -45.5 -28.5zM219.5 541q16.5 28 16.5 78q0 20 -3 36l-101 -119
q17 -23 42 -23q29 0 45.5 28z" />
    <glyph glyph-name="backslash.case" horiz-adv-x="347" 
d="M145 700l229 -700h-142l-228 700h141z" />
    <glyph glyph-name="periodcentered.case" horiz-adv-x="288" 
d="M83 409.5q24 23.5 61 23.5q36 0 60.5 -24t24.5 -60t-24.5 -59.5t-60.5 -23.5q-37 0 -61 23.5t-24 59.5q0 37 24 60.5z" />
    <glyph glyph-name="colon.case" horiz-adv-x="248" 
d="M63 560.5q24 23.5 61 23.5q36 0 60.5 -24t24.5 -60t-24.5 -59.5t-60.5 -23.5q-37 0 -61 23.5t-24 59.5q0 37 24 60.5zM63 212.5q24 23.5 61 23.5q36 0 60.5 -24t24.5 -60t-24.5 -59.5t-60.5 -23.5q-37 0 -61 23.5t-24 59.5q0 37 24 60.5z" />
    <glyph glyph-name="semicolon.case" horiz-adv-x="248" 
d="M190 196.5q29 -36.5 29 -94.5q0 -83 -50 -127t-137 -45v73q46 1 70.5 20t24.5 48q0 10 -1 14q-16 -8 -32 -8q-29 0 -48.5 19.5t-19.5 56.5q0 33 25.5 56.5t62.5 23.5q47 0 76 -36.5zM58 559.5q24 23.5 61 23.5q36 0 60.5 -24t24.5 -60t-24.5 -59.5t-60.5 -23.5
q-37 0 -61 23.5t-24 59.5q0 37 24 60.5z" />
    <glyph glyph-name="slash.case" horiz-adv-x="347" 
d="M217 700h141l-228 -700h-142z" />
    <glyph glyph-name="braceleft.case" horiz-adv-x="382" 
d="M269 558q-18 -18 -18 -52q0 -15 3 -36q3 -16 3 -33q0 -34 -22.5 -56t-55.5 -31q34 -8 56.5 -30.5t22.5 -55.5q0 -10 -4 -34q-3 -19 -3 -36q0 -34 18 -52t60 -19h37v-123h-53q-90 0 -139.5 31t-49.5 114q0 9 2 31q3 26 3 41q0 41 -23.5 57.5t-76.5 16.5v119q54 0 77 16.5
t23 57.5q0 16 -3 37q-2 22 -2 34q0 83 49.5 114t139.5 31h53v-123h-37q-42 -1 -60 -19z" />
    <glyph glyph-name="braceright.case" horiz-adv-x="382" 
d="M276 426.5q23 -16.5 77 -16.5v-119q-53 0 -76.5 -16.5t-23.5 -57.5q0 -15 3 -41q2 -22 2 -31q0 -83 -49.5 -114t-139.5 -31h-53v123h37q42 1 60 19t18 52q0 17 -3 36q-4 24 -4 34q0 33 22.5 55.5t56.5 30.5q-33 9 -55.5 31t-22.5 56q0 17 3 33q3 21 3 36q0 34 -18 52
t-60 19h-37v123h53q90 0 139.5 -31t49.5 -114q0 -12 -2 -34q-3 -21 -3 -37q0 -41 23 -57.5z" />
    <glyph glyph-name="bracketleft.case" horiz-adv-x="335" 
d="M51 700h267v-123h-135v-454h135v-123h-267v700z" />
    <glyph glyph-name="bracketright.case" horiz-adv-x="335" 
d="M284 700v-700h-267v123h135v454h-135v123h267z" />
    <glyph glyph-name="parenleft.case" horiz-adv-x="303" 
d="M68.5 538.5q26.5 92.5 67.5 161.5h145q-49 -74 -74 -165t-25 -185t25.5 -185.5t73.5 -164.5h-145q-41 69 -67.5 161t-26.5 189q0 96 26.5 188.5z" />
    <glyph glyph-name="parenright.case" horiz-adv-x="303" 
d="M22 0q48 73 73.5 164.5t25.5 185.5t-25 185t-74 165h145q41 -69 67.5 -161.5t26.5 -188.5q0 -97 -26.5 -189t-67.5 -161h-145z" />
    <glyph glyph-name="emdash.case" horiz-adv-x="935" 
d="M45 415h845v-124h-845v124z" />
    <glyph glyph-name="endash.case" horiz-adv-x="610" 
d="M45 291v124h520v-124h-520z" />
    <glyph glyph-name="hyphen.case" horiz-adv-x="440" 
d="M45 291v124h350v-124h-350z" />
    <glyph glyph-name="guillemotleft.case" horiz-adv-x="618" 
d="M329 609l-150 -257l150 -257h-142l-152 257l152 257h142zM580 608l-150 -257l150 -257h-142l-152 257l152 257h142z" />
    <glyph glyph-name="guillemotright.case" horiz-adv-x="618" 
d="M289 609h142l152 -257l-152 -257h-142l150 257zM38 608h142l152 -257l-152 -257h-142l150 257z" />
    <glyph glyph-name="guilsinglleft.case" horiz-adv-x="366" 
d="M182 605h151l-150 -255l150 -255h-151l-152 255z" />
    <glyph glyph-name="guilsinglright.case" horiz-adv-x="366" 
d="M184 605l152 -255l-152 -255h-151l150 255l-150 255h151z" />
    <glyph glyph-name="dotmath.case" horiz-adv-x="248" 
d="M63 416.5q24 23.5 61 23.5q36 0 60.5 -24t24.5 -60t-24.5 -59.5t-60.5 -23.5q-37 0 -61 23.5t-24 59.5q0 37 24 60.5z" />
    <glyph glyph-name="plus.case" horiz-adv-x="515" 
d="M193 574h128v-160h152v-119h-152v-161h-128v161h-151v119h151v160z" />
    <glyph glyph-name="minus.case" horiz-adv-x="515" 
d="M42 295v119h431v-119h-431z" />
    <glyph glyph-name="multiply.case" horiz-adv-x="515" 
d="M125 574l136 -136l132 133l84 -84l-133 -132l136 -136l-90 -91l-136 137l-133 -133l-83 83l133 133l-136 135z" />
    <glyph glyph-name="divide.case" horiz-adv-x="515" 
d="M199.5 603q23.5 23 58.5 23t58.5 -23t23.5 -58q0 -34 -23.5 -57t-58.5 -23t-58.5 23t-23.5 57q0 35 23.5 58zM42 295v119h431v-119h-431zM199.5 232q23.5 23 58.5 23t58.5 -23t23.5 -58q0 -34 -23.5 -57t-58.5 -23t-58.5 23t-23.5 57q0 35 23.5 58z" />
    <glyph glyph-name="equal.case" horiz-adv-x="515" 
d="M52 397v119h411v-119h-411zM52 182v118h411v-118h-411z" />
    <glyph glyph-name="notequal.case" horiz-adv-x="515" 
d="M463 397h-123l-32 -97h155v-118h-194l-29 -87h-140l29 87h-77v118h116l32 97h-148v119h187l27 82h140l-27 -82h84v-119z" />
    <glyph glyph-name="greater.case" horiz-adv-x="515" 
d="M455 420v-132l-395 -164v136l238 94l-238 94v136z" />
    <glyph glyph-name="less.case" horiz-adv-x="515" 
d="M60 288v132l395 164v-136l-238 -94l238 -94v-136z" />
    <glyph glyph-name="greaterequal.case" horiz-adv-x="515" 
d="M455 465v-132l-395 -164v136l238 94l-238 94v136zM60 8v118h395v-118h-395z" />
    <glyph glyph-name="lessequal.case" horiz-adv-x="515" 
d="M60 333v132l395 164v-136l-238 -94l238 -94v-136zM60 8v118h395v-118h-395z" />
    <glyph glyph-name="plusminus.case" horiz-adv-x="515" 
d="M193 629h128v-160h152v-119h-152v-161h-128v161h-151v119h151v160zM42 7v119h431v-119h-431z" />
    <glyph glyph-name="approxequal.case" horiz-adv-x="515" 
d="M39 112q0 88 32.5 132.5t95.5 44.5q34 0 56 -8.5t48 -24.5q15 -10 25.5 -15t22.5 -5q45 0 45 53h112q0 -88 -32.5 -132.5t-95.5 -44.5q-35 0 -58 9t-46 25q-3 2 -13 7.5t-18.5 8.5t-16.5 3q-24 0 -34.5 -13.5t-10.5 -39.5h-112zM39 345q0 88 32.5 132.5t95.5 44.5
q34 0 56 -8.5t48 -24.5q15 -10 25.5 -15t22.5 -5q45 0 45 53h112q0 -88 -32.5 -132.5t-95.5 -44.5q-35 0 -58 9t-46 25q-3 2 -13 7.5t-18.5 8.5t-16.5 3q-24 0 -34.5 -13.5t-10.5 -39.5h-112z" />
    <glyph glyph-name="asciitilde.case" horiz-adv-x="515" 
d="M39 250q0 88 32.5 132.5t95.5 44.5q34 0 56 -8.5t48 -24.5q15 -10 25.5 -15t22.5 -5q45 0 45 53h112q0 -88 -32.5 -132.5t-95.5 -44.5q-35 0 -58 9t-46 25q-3 2 -13 7.5t-18.5 8.5t-16.5 3q-24 0 -34.5 -13.5t-10.5 -39.5h-112z" />
    <glyph glyph-name="logicalnot.case" horiz-adv-x="515" 
d="M42 432h395v-279h-125v160h-270v119z" />
    <glyph glyph-name="arrowup.case" horiz-adv-x="757" 
d="M39 366l340 342l340 -342l-102 -102l-166 169v-433h-145v433l-166 -169z" />
    <glyph glyph-name="uni2197.case" horiz-adv-x="679" 
d="M159 700h481v-480h-143l1 236l-357 -356l-102 103l356 355l-236 -1v143z" />
    <glyph glyph-name="arrowright.case" horiz-adv-x="786" 
d="M406 690l341 -340l-341 -341l-103 102l169 166h-433v145h433l-169 166z" />
    <glyph glyph-name="uni2198.case" horiz-adv-x="679" 
d="M159 0v144l236 -1l-356 355l102 102l357 -356l-1 236h143v-480h-481z" />
    <glyph glyph-name="arrowdown.case" horiz-adv-x="757" 
d="M39 334l101 102l166 -169v433h145v-433l166 169l102 -102l-340 -342z" />
    <glyph glyph-name="uni2199.case" horiz-adv-x="679" 
d="M538 600l102 -103l-356 -355l236 1v-143l-481 -1v481h144l-1 -236z" />
    <glyph glyph-name="arrowleft.case" horiz-adv-x="786" 
d="M380 690l103 -102l-169 -166h433v-145h-433l169 -166l-103 -102l-341 341z" />
    <glyph glyph-name="uni2196.case" horiz-adv-x="679" 
d="M520 700v-143l-236 1l356 -355l-102 -103l-356 356l1 -236h-144v480h481z" />
    <glyph glyph-name="arrowboth.case" horiz-adv-x="1029" 
d="M1026 349l-331 -329l-101 101l155 156h-470l155 -156l-100 -101l-331 329l103 103l228 228l102 -101l-157 -156h471l-158 156l103 101z" />
    <glyph glyph-name="bar.case" horiz-adv-x="268" 
d="M60 700h149v-700h-149v700z" />
    <glyph glyph-name="brokenbar.case" horiz-adv-x="268" 
d="M60 700h149v-317h-149v317zM60 313h149v-313h-149v313z" />
    </font>
</defs>
</svg>
