<?xml version="1.0" standalone="no"?>
<!DOCTYPE svg PUBLIC "-//W3C//DTD SVG 1.1//EN" "http://www.w3.org/Graphics/SVG/1.1/DTD/svg11.dtd" >
<svg xmlns="http://www.w3.org/2000/svg" xmlns:xlink="http://www.w3.org/1999/xlink" version="1.1">
<metadata>
Created by FontForge 20201107 at Wed Aug  1 20:26:49 2018
 By 
Mark Bloom and Joe Leadbeater (c) 2018
</metadata>
<defs>
<font id="Aeonik-Regular" horiz-adv-x="600" >
  <font-face 
    font-family="Aeonik"
    font-weight="400"
    font-stretch="normal"
    units-per-em="1000"
    panose-1="2 1 5 3 3 3 0 0 0 0"
    ascent="800"
    descent="-200"
    x-height="510"
    cap-height="700"
    bbox="-373 -206 2141 898"
    underline-thickness="60"
    underline-position="-200"
    unicode-range="U+0020-1F10C"
  />
<missing-glyph horiz-adv-x="620" 
d="M80 700h460v-768h-460v768z" />
    <glyph glyph-name="fi" unicode="fi" horiz-adv-x="520" 
d="M385 616q-15 15 -15 38t15 38t38 15t38 -15t15 -38t-15 -38t-38 -15t-38 15zM464 0h-82v435h-210v-435h-82v435h-92v75h92v57q0 68 31.5 100.5t101.5 32.5h84v-75h-79q-30 0 -43 -13t-13 -43v-59h292v-510z" />
    <glyph glyph-name="f_f.liga" unicode="ff" horiz-adv-x="607" 
d="M477 612q-13 -13 -13 -43v-59h144v-75h-144v-435h-82v435h-210v-435h-82v435h-92v75h92v57q0 68 31.5 100.5t101.5 32.5h84v-75h-79q-30 0 -43 -13t-13 -43v-59h210v57q0 68 31.5 100.5t101.5 32.5h94v-75h-89q-30 0 -43 -13z" />
    <glyph glyph-name="f_f_i.liga" unicode="ffi" horiz-adv-x="812" 
d="M677 616q-15 15 -15 38t15 38t38 15t38 -15t15 -38t-15 -38t-38 -15t-38 15zM756 0h-82v435h-210v-435h-82v435h-210v-435h-82v435h-92v75h92v57q0 68 31.5 100.5t101.5 32.5h84v-75h-79q-30 0 -43 -13t-13 -43v-59h210v57q0 68 31.5 100.5t101.5 32.5h84v-75h-79
q-30 0 -43 -13t-13 -43v-59h292v-510z" />
    <glyph glyph-name="f_f_t.liga" unicode="fft" horiz-adv-x="903" 
d="M901 75v-75h-94q-72 0 -102.5 32t-30.5 101v302h-210v-435h-82v435h-210v-435h-82v435h-92v75h92v57q0 68 31.5 100.5t101.5 32.5h84v-75h-79q-30 0 -43 -13t-13 -43v-59h210v57q0 68 31.5 100.5t101.5 32.5h84v-75h-79q-30 0 -43 -13t-13 -43v-59h210v143h82v-143h129
v-75h-129v-301q0 -32 12.5 -45.5t43.5 -13.5h89z" />
    <glyph glyph-name="f_t.liga" unicode="ft" horiz-adv-x="611" 
d="M609 75v-75h-94q-72 0 -102.5 32t-30.5 101v302h-210v-435h-82v435h-92v75h92v57q0 68 31.5 100.5t101.5 32.5h84v-75h-79q-30 0 -43 -13t-13 -43v-59h210v143h82v-143h129v-75h-129v-301q0 -32 12.5 -45.5t43.5 -13.5h89z" />
    <glyph glyph-name="t_t.liga" unicode="tt" horiz-adv-x="611" 
d="M609 75v-75h-94q-72 0 -102.5 32t-30.5 101v302h-210v-301q0 -32 12.5 -45.5t43.5 -13.5h73v-75h-78q-72 0 -102.5 32t-30.5 101v302h-92v75h92v143h82v-143h210v143h82v-143h129v-75h-129v-301q0 -32 12.5 -45.5t43.5 -13.5h89z" />
    <glyph glyph-name=".notdef" horiz-adv-x="620" 
d="M80 700h460v-768h-460v768z" />
    <glyph glyph-name=".null" horiz-adv-x="0" 
 />
    <glyph glyph-name="nonmarkingreturn" horiz-adv-x="333" 
 />
    <glyph glyph-name="space" unicode=" " horiz-adv-x="262" 
 />
    <glyph glyph-name="exclam" unicode="!" horiz-adv-x="250" 
d="M94 209l-13 491h88l-12 -491h-63zM84 90.5q16 15.5 41 15.5t41 -15.5t16 -40.5t-16 -40.5t-41 -15.5t-41 15.5t-16 40.5t16 40.5z" />
    <glyph glyph-name="quotedbl" unicode="&#x22;" horiz-adv-x="368" 
d="M59 688q12 16 36 16q26 0 37 -16t9 -40l-17 -191h-57l-18 191q-2 24 10 40zM237 688q12 16 36 16q26 0 37 -16t9 -40l-17 -191h-57l-18 191q-2 24 10 40z" />
    <glyph glyph-name="numbersign" unicode="#" horiz-adv-x="579" 
d="M198 606h68l-26 -168h137l26 168h68l-26 -168h96v-69h-106l-19 -132h103v-69h-113l-26 -168h-68l26 168h-137l-26 -168h-68l26 168h-96v69h106l19 132h-103v69h113zM230 369l-19 -132h137l19 132h-137z" />
    <glyph glyph-name="dollar" unicode="$" horiz-adv-x="607" 
d="M537.5 100q-27.5 -45 -77 -72.5t-113.5 -32.5v-102h-76v103q-104 12 -164.5 75t-64.5 158h86q5 -71 57 -113.5t132 -42.5q72 0 116.5 31.5t44.5 87.5q0 41 -24.5 65t-63 35.5t-104.5 22.5q-105 18 -167 59t-62 133q0 84 59 138t155 61v102h76v-105q90 -13 146 -69.5
t61 -140.5h-86q-8 61 -55 98t-117 37t-111 -30.5t-41 -85.5q0 -40 24 -62.5t62 -34t104 -22.5q105 -18 168 -59.5t63 -133.5q0 -55 -27.5 -100z" />
    <glyph glyph-name="percent" unicode="%" horiz-adv-x="900" 
d="M77 623.5q23 38.5 63 60.5t90 22t90 -22t63 -60.5t23 -87.5q0 -48 -23 -86.5t-63 -60t-90 -21.5t-90 21.5t-63 60t-23 86.5q0 49 23 87.5zM172 0l477 700h81l-477 -700h-81zM303 610.5q-29 29.5 -73 29.5t-73 -29.5t-29 -74.5q0 -44 29 -73t73 -29t73 29t29 73
q0 45 -29 74.5zM517 249.5q23 38.5 63 60.5t90 22t90 -22t63 -60.5t23 -87.5q0 -48 -23 -86.5t-63 -60t-90 -21.5t-90 21.5t-63 60t-23 86.5q0 49 23 87.5zM743 236.5q-29 29.5 -73 29.5t-73 -29.5t-29 -74.5q0 -44 29 -73t73 -29t73 29t29 73q0 45 -29 74.5z" />
    <glyph glyph-name="ampersand" unicode="&#x26;" horiz-adv-x="742" 
d="M691 73v-73h-76q-35 0 -61.5 8.5t-44.5 29.5l-40 45q-86 -89 -197 -89q-96 0 -158 48t-62 134q0 60 37.5 112.5t119.5 87.5q-39 47 -54 82t-15 80q0 47 26 85.5t71 60.5t100 22q47 0 84.5 -20t59 -55t21.5 -78q0 -62 -39.5 -111t-130.5 -85l140 -156l118 177h87
l-155 -233l39 -44q14 -16 28.5 -22t35.5 -6h66zM254 610q-29 -27 -29 -69q0 -36 13.5 -64t49.5 -70q131 52 131 144q0 38 -24.5 62t-63.5 24q-48 0 -77 -27zM421 137l-163 182l-7 7q-64 -31 -89.5 -63t-25.5 -79q0 -55 38 -86t100 -31q82 0 147 70z" />
    <glyph glyph-name="quotesingle" unicode="'" horiz-adv-x="190" 
d="M59 688q12 16 36 16q26 0 37 -16t9 -40l-17 -191h-57l-18 191q-2 24 10 40z" />
    <glyph glyph-name="parenleft" unicode="(" horiz-adv-x="300" 
d="M300 700q-90 -124 -127 -223.5t-37 -226.5q0 -126 37 -225.5t127 -224.5h-86q-84 114 -121.5 219.5t-37.5 230.5q0 126 37.5 230.5t121.5 219.5h86z" />
    <glyph glyph-name="parenright" unicode=")" horiz-adv-x="300" 
d="M212.5 480.5q37.5 -104.5 37.5 -230.5q0 -125 -37.5 -230.5t-121.5 -219.5h-86q90 125 127 224.5t37 225.5q0 127 -37 226.5t-127 223.5h86q84 -115 121.5 -219.5z" />
    <glyph glyph-name="asterisk" unicode="*" horiz-adv-x="425" 
d="M378 569l-122 -45l83 -98l-44 -40l-84 105l-83 -105l-43 40l84 99l-122 45l23 56l116 -53l-2 128h57l-3 -129l117 54z" />
    <glyph glyph-name="plus" unicode="+" horiz-adv-x="524" 
d="M224 496h75v-175h167v-69h-167v-176h-75v176h-166v69h166v175z" />
    <glyph glyph-name="comma" unicode="," horiz-adv-x="206" 
d="M150.5 75.5q21.5 -29.5 21.5 -72.5q0 -64 -37.5 -100t-103.5 -38v47q44 1 64 25t20 55q0 9 -1 13q-12 -12 -34 -12q-23 0 -38 14t-15 40q0 25 17.5 41.5t48.5 16.5q36 0 57.5 -29.5z" />
    <glyph glyph-name="hyphen" unicode="-" horiz-adv-x="437" 
d="M52 250v68h333v-68h-333z" />
    <glyph glyph-name="period" unicode="." horiz-adv-x="206" 
d="M62 90.5q16 15.5 41 15.5t41 -15.5t16 -40.5t-16 -40.5t-41 -15.5t-41 15.5t-16 40.5t16 40.5z" />
    <glyph glyph-name="slash" unicode="/" horiz-adv-x="323" 
d="M-24 -200l293 900h78l-293 -900h-78z" />
    <glyph glyph-name="zero" unicode="0" horiz-adv-x="625" 
d="M47 366q0 99 33.5 176t94 120.5t138.5 43.5q77 0 137.5 -43.5t94 -120.5t33.5 -176v-32q0 -103 -33.5 -180t-93.5 -118.5t-138 -41.5q-79 0 -139 41.5t-93.5 118.5t-33.5 180v32zM470.5 505q-22.5 60 -63 92t-94.5 32t-95 -32t-63.5 -92t-22.5 -142v-26q0 -82 22.5 -142
t63.5 -92t95 -32t94.5 32t63 92t22.5 142v26q0 82 -22.5 142z" />
    <glyph glyph-name="one" unicode="1" horiz-adv-x="324" 
d="M250 700v-700h-84v494q-14 -13 -48 -13h-113v75h114q24 0 36.5 16.5t12.5 43.5v84h82z" />
    <glyph glyph-name="two" unicode="2" horiz-adv-x="565" 
d="M311 307q59 51 89 92.5t30 93.5q0 65 -41.5 102t-111.5 37q-68 0 -109 -42t-41 -114v-13h-84v18q0 66 29 117t82.5 80t122.5 29q112 0 175.5 -57t63.5 -153q0 -50 -19.5 -91t-50.5 -74.5t-81 -76.5l-210 -178h366v-77h-482v71z" />
    <glyph glyph-name="three" unicode="3" 
d="M510 305.5q43 -43.5 43 -111.5q0 -59 -31.5 -104.5t-89.5 -70.5t-134 -25q-116 0 -185 59.5t-69 162.5h86q1 -68 48.5 -107.5t124.5 -39.5q71 0 117.5 36t46.5 95q0 56 -45 88t-127 32h-60v73h55q77 0 118 34t41 89q0 53 -41.5 84t-106.5 31q-68 0 -110.5 -34.5
t-43.5 -93.5h-84q1 95 65 149t170 54q72 0 126 -23t82.5 -65t28.5 -97q0 -64 -35 -106t-95 -54q62 -12 105 -55.5z" />
    <glyph glyph-name="four" unicode="4" horiz-adv-x="610" 
d="M23 246l351 454h100v-452h113v-77h-113v-171h-84v171h-367v75zM113 248h277v358z" />
    <glyph glyph-name="five" unicode="5" horiz-adv-x="588" 
d="M438 439q52 -30 81 -83t29 -122q0 -75 -33 -129t-89 -82t-123 -28q-76 0 -132 29.5t-86.5 80.5t-34.5 113h84q6 -63 51.5 -105.5t117.5 -42.5q42 0 78.5 18.5t58.5 55.5t22 89q0 72 -43 117t-115 45q-47 0 -93 -20t-66 -75l-81 2l23 398h416v-77h-339l-16 -230
q31 40 77.5 58t94.5 18q66 0 118 -30z" />
    <glyph glyph-name="six" unicode="6" horiz-adv-x="604" 
d="M61.5 217q-14.5 61 -14.5 130q0 110 31.5 191t91.5 124.5t143 43.5q95 0 156.5 -52.5t74.5 -140.5h-84q-12 55 -50.5 87t-100.5 32q-90 0 -139.5 -74t-49.5 -195l1 -34q3 13 6 19q24 53 75 84t120 31t122 -29t83 -82t30 -123q0 -67 -31 -120.5t-86 -84t-126 -30.5
t-124.5 30.5t-87.5 85.5q-26 46 -40.5 107zM430.5 344.5q-42.5 44.5 -114.5 44.5q-73 0 -118 -45t-45 -117q0 -71 44 -115t116 -44t116 45t44 116t-42.5 115.5z" />
    <glyph glyph-name="seven" unicode="7" horiz-adv-x="533" 
d="M13 700h494v-59l-344 -641h-91l343 623h-402v77z" />
    <glyph glyph-name="eight" unicode="8" 
d="M510 303.5q43 -45.5 43 -115.5q0 -57 -30.5 -101t-88 -68.5t-134.5 -24.5t-134.5 24.5t-88 68.5t-30.5 101q0 69 43 114.5t112 60.5q-59 12 -97 54.5t-38 103.5q0 55 28.5 97t81.5 65.5t123 23.5t123 -23.5t81.5 -65.5t28.5 -97q0 -60 -38 -103.5t-97 -54.5
q69 -14 112 -59.5zM192 436.5q42 -32.5 108 -32.5t108 32.5t42 84.5q0 51 -42 83.5t-108 32.5t-108 -32.5t-42 -83.5q0 -52 42 -84.5zM421.5 99q47.5 36 47.5 92q0 37 -22 67t-60.5 47t-86.5 17t-86.5 -17t-60.5 -47t-22 -67q0 -56 48 -92t121 -36q74 0 121.5 36z" />
    <glyph glyph-name="nine" unicode="9" horiz-adv-x="604" 
d="M542.5 483q14.5 -61 14.5 -130q0 -110 -31.5 -191t-91.5 -124.5t-143 -43.5q-95 0 -156.5 52.5t-74.5 140.5h84q12 -55 50.5 -87t100.5 -32q90 0 139.5 74t49.5 195l-1 34q-3 -13 -6 -19q-24 -53 -75 -84t-120 -31t-122 29t-83 82t-30 123q0 67 31 120.5t86 84t126 30.5
t124.5 -30.5t87.5 -85.5q26 -46 40.5 -107zM173.5 355.5q42.5 -44.5 114.5 -44.5q73 0 118 45t45 117q0 71 -44 115t-116 44t-116 -45t-44 -116t42.5 -115.5z" />
    <glyph glyph-name="colon" unicode=":" horiz-adv-x="206" 
d="M62 465.5q16 15.5 41 15.5t41 -15.5t16 -40.5t-16 -40.5t-41 -15.5t-41 15.5t-16 40.5t16 40.5zM62 90.5q16 15.5 41 15.5t41 -15.5t16 -40.5t-16 -40.5t-41 -15.5t-41 15.5t-16 40.5t16 40.5z" />
    <glyph glyph-name="semicolon" unicode=";" horiz-adv-x="206" 
d="M150.5 75.5q21.5 -29.5 21.5 -72.5q0 -64 -37.5 -100t-103.5 -38v47q44 1 64 25t20 55q0 9 -1 13q-12 -12 -34 -12q-23 0 -38 14t-15 40q0 25 17.5 41.5t48.5 16.5q36 0 57.5 -29.5zM59 465.5q16 15.5 41 15.5t41 -15.5t16 -40.5t-16 -40.5t-41 -15.5t-41 15.5t-16 40.5
t16 40.5z" />
    <glyph glyph-name="less" unicode="&#x3c;" horiz-adv-x="524" 
d="M72 245v78l380 170v-80l-288 -129l288 -129v-80z" />
    <glyph glyph-name="equal" unicode="=" horiz-adv-x="524" 
d="M68 345v70h388v-70h-388zM68 137v69h388v-69h-388z" />
    <glyph glyph-name="greater" unicode="&#x3e;" horiz-adv-x="524" 
d="M452 323v-78l-380 -170v80l288 129l-288 129v80z" />
    <glyph glyph-name="question" unicode="?" horiz-adv-x="513" 
d="M61.5 593.5q27.5 52.5 79 82.5t120.5 30q64 0 113 -23t75.5 -63t26.5 -91q0 -61 -26 -100t-72 -71q-50 -35 -71 -58.5t-21 -60.5v-26h-77v35q0 37 14 64t34.5 44.5t58.5 43.5q37 26 55.5 54t18.5 67q0 48 -35.5 78.5t-92.5 30.5q-65 0 -104.5 -42t-39.5 -111h-84
q0 64 27.5 116.5zM208 90.5q16 15.5 41 15.5t41 -15.5t16 -40.5t-16 -40.5t-41 -15.5t-41 15.5t-16 40.5t16 40.5z" />
    <glyph glyph-name="at" unicode="@" horiz-adv-x="982" 
d="M112.5 467.5q61.5 99.5 167.5 156t232 56.5q122 0 217.5 -46.5t148.5 -129t53 -187.5q0 -78 -28.5 -139t-78 -95t-110.5 -34q-44 0 -71 21.5t-31 53.5l-2 15q-17 -40 -61 -64.5t-97 -24.5q-50 0 -90.5 24t-63.5 67.5t-23 99.5q0 62 28.5 115t76.5 84t103 31q56 0 92 -21
t48 -55l15 67h64l-30 -285l-1 -13q0 -29 15 -43.5t42 -14.5q33 0 61.5 28t46 77t17.5 108q0 87 -42.5 153.5t-120.5 103t-179 36.5q-104 0 -191.5 -48.5t-139 -132t-51.5 -184.5q0 -103 45 -179t128.5 -116.5t195.5 -40.5q65 0 123.5 16t105.5 46l-2 -73
q-39 -26 -101.5 -41.5t-132.5 -15.5q-128 0 -228 50t-156 141t-56 212q0 122 61.5 221.5zM580.5 378.5q-31.5 32.5 -82.5 32.5q-41 0 -74.5 -22.5t-53 -61t-19.5 -83.5q0 -60 32.5 -97t84.5 -37q40 0 73 22.5t52 63.5t19 94q0 56 -31.5 88.5z" />
    <glyph glyph-name="A" unicode="A" horiz-adv-x="658" 
d="M11 0l267 700h103l266 -700h-93l-74 189h-305l-74 -189h-90zM201 268h253l-127 337z" />
    <glyph glyph-name="B" unicode="B" horiz-adv-x="623" 
d="M316 700q111 0 171.5 -48t60.5 -133q0 -62 -32 -102.5t-93 -56.5q154 -29 154 -167q0 -90 -65.5 -141.5t-188.5 -51.5h-255v700h248zM155 396h165q67 0 104 30t37 83t-36.5 82.5t-104.5 29.5h-165v-225zM155 79h168q80 0 122.5 31t42.5 86q0 59 -43 90.5t-122 31.5h-168
v-239z" />
    <glyph glyph-name="C" unicode="C" horiz-adv-x="710" 
d="M83 536q41 81 117 125.5t176 44.5q116 0 194.5 -63t98.5 -172h-87q-19 73 -74.5 114t-135.5 41q-72 0 -127 -35t-84.5 -97.5t-29.5 -143.5q0 -80 29.5 -143t84.5 -98t127 -35q81 0 135 40.5t74 114.5h87q-20 -109 -97.5 -172t-194.5 -63q-100 0 -176 44.5t-117 125
t-41 186.5q0 105 41 186z" />
    <glyph glyph-name="D" unicode="D" horiz-adv-x="669" 
d="M68 700h207q108 0 187.5 -43.5t122 -122.5t42.5 -184q0 -104 -42.5 -183.5t-122 -123t-187.5 -43.5h-207v700zM275 80q125 0 194 73t69 197q0 125 -68.5 197.5t-194.5 72.5h-120v-540h120z" />
    <glyph glyph-name="E" unicode="E" horiz-adv-x="557" 
d="M68 700h446v-80h-359v-224h299v-80h-299v-236h372v-80h-459v700z" />
    <glyph glyph-name="F" unicode="F" horiz-adv-x="528" 
d="M68 700h435v-80h-348v-234h288v-80h-288v-306h-87v700z" />
    <glyph glyph-name="G" unicode="G" horiz-adv-x="747" 
d="M83 536q41 81 117 125.5t176 44.5q116 0 194.5 -63t98.5 -171h-86q-20 73 -75 113.5t-134 40.5q-72 0 -127.5 -35t-85.5 -98t-30 -143t30 -143t85 -98t126 -35q64 0 114.5 24.5t79 70t28.5 106.5v24h-210v80h295v-379h-72l-9 111q-29 -47 -87 -82t-140 -35q-96 0 -171 45
t-116.5 125.5t-41.5 185.5t41 186z" />
    <glyph glyph-name="H" unicode="H" horiz-adv-x="672" 
d="M68 701h87v-305h362v305h87v-701h-87v316h-362v-316h-87v701z" />
    <glyph glyph-name="I" unicode="I" horiz-adv-x="223" 
d="M68 700h87v-700h-87v700z" />
    <glyph glyph-name="J" unicode="J" horiz-adv-x="350" 
d="M282 700v-535q0 -81 -42 -123t-123 -42h-91v82h80q47 0 68 21.5t21 68.5v528h87z" />
    <glyph glyph-name="K" unicode="K" horiz-adv-x="638" 
d="M68 700h87v-397l353 397h106l-256 -295l276 -405h-104l-236 339l-139 -157v-182h-87v700z" />
    <glyph glyph-name="L" unicode="L" horiz-adv-x="499" 
d="M68 0v700h87v-620h319v-80h-406z" />
    <glyph glyph-name="M" unicode="M" horiz-adv-x="847" 
d="M68 700h110l248 -581l245 581h108v-700h-85v552l-232 -552h-77l-232 552v-552h-85v700z" />
    <glyph glyph-name="N" unicode="N" horiz-adv-x="677" 
d="M68 0v700h80l376 -540v540h85v-700h-80l-376 540v-540h-85z" />
    <glyph glyph-name="O" unicode="O" horiz-adv-x="752" 
d="M667.5 167q-42.5 -81 -118.5 -127t-173 -46t-173 46t-118.5 127t-42.5 183t42.5 183t118.5 127t173 46t173 -46t118.5 -127t42.5 -183t-42.5 -183zM162 207.5q31 -62.5 86.5 -98t127.5 -35.5t127.5 35.5t86.5 98t31 142.5t-31 142.5t-86.5 98t-127.5 35.5t-127.5 -35.5
t-86.5 -98t-31 -142.5t31 -142.5z" />
    <glyph glyph-name="P" unicode="P" horiz-adv-x="594" 
d="M337 700q69 0 122 -26.5t81.5 -75t28.5 -113.5t-29 -114t-81.5 -75.5t-121.5 -26.5h-182v-269h-87v700h269zM155 349h174q69 0 110 37t41 99t-40.5 98.5t-109.5 36.5h-175v-271z" />
    <glyph glyph-name="Q" unicode="Q" horiz-adv-x="756" 
d="M753 80v-80h-64q-39 0 -63 11t-43 37l-7 10q-84 -64 -200 -64q-97 0 -173 46t-118.5 127t-42.5 183t42.5 183t118.5 127t173 46t173 -46t118.5 -127t42.5 -183q0 -69 -20 -129t-57 -107q14 -19 29 -26.5t37 -7.5h54zM526 126l-19 26q-14 19 -28 27t-33 8h-59v80h73
q34 0 56 -11.5t41 -37.5l22 -30q42 68 42 162q0 80 -31 142.5t-86.5 98t-127.5 35.5t-127.5 -35.5t-86.5 -98t-31 -142.5t31 -142.5t86.5 -98t127.5 -35.5q87 0 150 52z" />
    <glyph glyph-name="R" unicode="R" horiz-adv-x="611" 
d="M336 700q69 0 122 -26.5t82 -75t29 -113.5q0 -73 -40.5 -126.5t-108.5 -72.5l157 -286h-98l-145 269h-179v-269h-87v700h268zM155 349h174q69 0 110 37t41 99q0 61 -41 98t-109 37h-175v-271z" />
    <glyph glyph-name="S" unicode="S" horiz-adv-x="607" 
d="M128 229q5 -71 57 -113.5t132 -42.5q72 0 116.5 31.5t44.5 87.5q0 41 -24.5 65t-63 35.5t-104.5 22.5q-105 18 -167 59t-62 133q0 59 30 104.5t84.5 70.5t124.5 25q74 0 131 -27t90 -75.5t37 -111.5h-86q-8 61 -55 98t-117 37t-111 -30.5t-41 -85.5q0 -40 24 -62.5
t62 -34t104 -22.5q105 -18 168 -59.5t63 -133.5q0 -60 -31.5 -107t-88 -73t-129.5 -26q-82 0 -143 29.5t-94.5 83t-36.5 122.5h86z" />
    <glyph glyph-name="T" unicode="T" horiz-adv-x="591" 
d="M25 700h541v-80h-227v-620h-87v620h-227v80z" />
    <glyph glyph-name="U" unicode="U" horiz-adv-x="662" 
d="M151 700v-406q0 -220 179 -220q181 0 181 220v406h87v-401q0 -150 -68.5 -227.5t-199.5 -77.5t-198.5 77.5t-67.5 227.5v401h87z" />
    <glyph glyph-name="V" unicode="V" horiz-adv-x="627" 
d="M9 700h92l214 -597l213 597h90l-252 -700h-105z" />
    <glyph glyph-name="W" unicode="W" horiz-adv-x="992" 
d="M28 700h91l164 -588l172 588h88l166 -588l165 588h90l-205 -700h-104l-160 555l-159 -555h-104z" />
    <glyph glyph-name="X" unicode="X" horiz-adv-x="640" 
d="M267 358l-223 342h102l177 -272l179 272h94l-223 -342l238 -358h-103l-192 288l-193 -288h-94z" />
    <glyph glyph-name="Y" unicode="Y" horiz-adv-x="633" 
d="M9 701h102l206 -348l209 348h98l-264 -442v-259h-87v259z" />
    <glyph glyph-name="Z" unicode="Z" horiz-adv-x="608" 
d="M43 700h522v-63l-418 -557h431v-80h-548v63l418 557h-405v80z" />
    <glyph glyph-name="bracketleft" unicode="[" horiz-adv-x="300" 
d="M63 701h220v-73h-143v-756h143v-72h-220v901z" />
    <glyph glyph-name="backslash" unicode="\" horiz-adv-x="323" 
d="M347 -200h-78l-293 900h78z" />
    <glyph glyph-name="bracketright" unicode="]" horiz-adv-x="300" 
d="M237 -201h-220v73h143v756h-143v72h220v-901z" />
    <glyph glyph-name="asciicircum" unicode="^" horiz-adv-x="514" 
d="M43 388l181 312h66l182 -312h-76l-141 240l-140 -240h-72z" />
    <glyph glyph-name="underscore" unicode="_" horiz-adv-x="503" 
d="M59 -88v82h385v-82h-385z" />
    <glyph glyph-name="grave" unicode="`" horiz-adv-x="400" 
d="M52 700h96l83 -136h-65z" />
    <glyph glyph-name="a" unicode="a" horiz-adv-x="540" 
d="M533 75v-75h-45q-49 0 -70 20t-22 59q-59 -85 -171 -85q-85 0 -136.5 40t-51.5 109q0 77 52.5 118t152.5 41h150v35q0 50 -33.5 78t-93.5 28q-53 0 -87.5 -23.5t-42.5 -62.5h-82q9 75 66.5 117t149.5 42q98 0 151.5 -47.5t53.5 -136.5v-220q0 -37 34 -37h25zM392 233
h-158q-114 0 -114 -85q0 -38 30 -61t81 -23q75 0 118 39.5t43 104.5v25z" />
    <glyph glyph-name="b" unicode="b" horiz-adv-x="596" 
d="M439.5 485q55.5 -31 87 -90t31.5 -140q0 -77 -31.5 -136t-87.5 -92t-126 -33q-62 0 -106 22.5t-69 61.5l-11 -78h-71v700h82v-272q64 88 175 88q71 0 126.5 -31zM427.5 119.5q46.5 52.5 46.5 135.5t-46.5 135.5t-122.5 52.5q-49 0 -87.5 -23.5t-59.5 -66t-21 -96.5
q0 -55 21 -98.5t59.5 -67.5t87.5 -24q76 0 122.5 52.5z" />
    <glyph glyph-name="c" unicode="c" horiz-adv-x="550" 
d="M436 42.5q-59 -48.5 -150 -48.5q-74 0 -130 33t-87 92.5t-31 136.5t31.5 136t88.5 91.5t131 32.5q90 0 148.5 -48t73.5 -132h-83q-12 49 -50 78t-92 29q-73 0 -118.5 -52t-45.5 -135q0 -84 45.5 -136.5t118.5 -52.5q56 0 94 29t49 80h82q-16 -85 -75 -133.5z" />
    <glyph glyph-name="d" unicode="d" horiz-adv-x="596" 
d="M540 700v-700h-71l-11 82q-64 -88 -175 -88q-71 0 -126.5 31t-87 90t-31.5 140q0 77 31.5 136t87.5 92t126 33q62 0 106 -22.5t69 -61.5v268h82zM378.5 90.5q38.5 23.5 59.5 66t21 96.5q0 55 -21 98.5t-59.5 67.5t-87.5 24q-76 0 -122.5 -52.5t-46.5 -135.5t46.5 -135.5
t122.5 -52.5q49 0 87.5 23.5z" />
    <glyph glyph-name="e" unicode="e" horiz-adv-x="560" 
d="M68.5 392q30.5 59 85.5 91.5t126 32.5q70 0 124 -29t85 -84t33 -129q0 -11 -2 -35h-396v-7q2 -75 46 -120t115 -45q55 0 93.5 27.5t51.5 76.5h83q-15 -78 -75 -127.5t-147 -49.5q-76 0 -133 32.5t-88.5 92t-31.5 136.5q0 78 30.5 137zM437 307q-6 65 -48.5 101t-107.5 36
q-58 0 -102 -38t-50 -99h308z" />
    <glyph glyph-name="f" unicode="f" horiz-adv-x="315" 
d="M90 510v57q0 68 31.5 100.5t101.5 32.5h94v-75h-89q-30 0 -43 -13t-13 -43v-59h144v-75h-144v-435h-82v435h-92v75h92z" />
    <glyph glyph-name="g" unicode="g" horiz-adv-x="596" 
d="M540 510v-485q0 -231 -253 -231q-99 0 -161.5 45t-72.5 128h84q10 -48 51 -74t105 -26q165 0 165 161v60q-55 -94 -175 -94q-71 0 -126.5 31t-87 90t-31.5 140q0 77 31.5 136t87.5 92t126 33q62 0 106 -24.5t69 -69.5l11 88h71zM378.5 90.5q38.5 23.5 59.5 66t21 96.5
q0 55 -21 98.5t-59.5 67.5t-87.5 24q-76 0 -122.5 -52.5t-46.5 -135.5t46.5 -135.5t122.5 -52.5q49 0 87.5 23.5z" />
    <glyph glyph-name="h" unicode="h" horiz-adv-x="562" 
d="M456 460q57 -56 57 -176v-284h-82v279q0 79 -36 120.5t-103 41.5q-71 0 -112.5 -50t-41.5 -136v-255h-82v700h82v-274q25 40 66.5 65t101.5 25q93 0 150 -56z" />
    <glyph glyph-name="i" unicode="i" horiz-adv-x="194" 
d="M135 692q15 -15 15 -38t-15 -38t-38 -15t-38 15t-15 38t15 38t38 15t38 -15zM56 510h82v-510h-82v510z" />
    <glyph glyph-name="j" unicode="j" horiz-adv-x="200" 
d="M141 692q15 -15 15 -38t-15 -38t-38 -15t-38 15t-15 38t15 38t38 15t38 -15zM6 -125q30 0 43 13t13 43v579h82v-577q0 -68 -31.5 -100.5t-101.5 -32.5h-69v75h64z" />
    <glyph glyph-name="k" unicode="k" horiz-adv-x="517" 
d="M56 700h82v-464l259 274h98l-196 -209l210 -301h-99l-170 242l-102 -107v-135h-82v700z" />
    <glyph glyph-name="l" unicode="l" horiz-adv-x="194" 
d="M56 700h82v-700h-82v700z" />
    <glyph glyph-name="m" unicode="m" horiz-adv-x="867" 
d="M764.5 462q53.5 -54 53.5 -168v-294h-82v289q0 74 -31.5 113t-89.5 39q-64 0 -100.5 -45t-36.5 -123v-273h-82v289q0 74 -32 113t-91 39q-62 0 -98.5 -47.5t-36.5 -124.5v-269h-82v510h71l11 -70q55 76 149 76q55 0 97.5 -24.5t63.5 -72.5q55 97 177 97q86 0 139.5 -54z
" />
    <glyph glyph-name="n" unicode="n" horiz-adv-x="561" 
d="M455.5 460q56.5 -56 56.5 -176v-284h-82v279q0 79 -35.5 120.5t-102.5 41.5q-72 0 -113 -50t-41 -136v-255h-82v510h71l11 -69q58 75 168 75q93 0 149.5 -56z" />
    <glyph glyph-name="o" unicode="o" horiz-adv-x="582" 
d="M159.5 27q-57.5 33 -89.5 92t-32 136t32 136t89.5 92t131.5 33t131.5 -33t89.5 -92t32 -136t-32 -136t-89.5 -92t-131.5 -33t-131.5 33zM379.5 91q38.5 24 59.5 67t21 97t-21 97t-59.5 67t-88.5 24t-88.5 -24t-59.5 -67t-21 -97t21 -97t59.5 -67t88.5 -24t88.5 24z" />
    <glyph glyph-name="p" unicode="p" horiz-adv-x="596" 
d="M439.5 485q55.5 -31 87 -90t31.5 -140q0 -77 -31.5 -136t-87.5 -92t-126 -33q-62 0 -106 22.5t-69 61.5v-278h-82v710h71l11 -82q64 88 175 88q71 0 126.5 -31zM427.5 119.5q46.5 52.5 46.5 135.5t-46.5 135.5t-122.5 52.5q-49 0 -87.5 -23.5t-59.5 -66t-21 -96.5
q0 -55 21 -98.5t59.5 -67.5t87.5 -24q76 0 122.5 52.5z" />
    <glyph glyph-name="q" unicode="q" horiz-adv-x="596" 
d="M540 510v-710h-82v282q-64 -88 -175 -88q-71 0 -126.5 31t-87 90t-31.5 140q0 77 31.5 136t87.5 92t126 33q62 0 106 -22.5t69 -61.5l11 78h71zM378.5 90.5q38.5 23.5 59.5 66t21 96.5q0 55 -21 98.5t-59.5 67.5t-87.5 24q-76 0 -122.5 -52.5t-46.5 -135.5t46.5 -135.5
t122.5 -52.5q49 0 87.5 23.5z" />
    <glyph glyph-name="r" unicode="r" horiz-adv-x="334" 
d="M315 510v-80h-41q-73 0 -104.5 -49t-31.5 -121v-260h-82v510h71l11 -77q22 35 57 56t97 21h23z" />
    <glyph glyph-name="s" unicode="s" horiz-adv-x="499" 
d="M120 168q2 -46 40.5 -75t99.5 -29q54 0 87.5 21.5t33.5 56.5q0 30 -16 46t-41.5 22t-72.5 12q-66 8 -108 21t-68 41.5t-26 78.5q0 45 25.5 80t69.5 54.5t99 19.5q90 0 146.5 -42t62.5 -120h-82q-5 40 -39 66t-85 26q-52 0 -84 -21.5t-32 -56.5q0 -26 15 -40t38.5 -19
t71.5 -11q67 -8 110.5 -22t70 -45t26.5 -84q0 -46 -27 -81t-73 -54t-102 -19q-100 0 -160.5 46t-61.5 128h82z" />
    <glyph glyph-name="t" unicode="t" horiz-adv-x="319" 
d="M90 435h-92v75h92v143h82v-143h129v-75h-129v-301q0 -32 12.5 -45.5t43.5 -13.5h89v-75h-94q-72 0 -102.5 32t-30.5 101v302z" />
    <glyph glyph-name="u" unicode="u" horiz-adv-x="551" 
d="M495 510v-510h-71l-11 68q-58 -74 -163 -74q-91 0 -146 56t-55 176v284h82v-279q0 -79 34.5 -120.5t98.5 -41.5q70 0 109.5 50t39.5 136v255h82z" />
    <glyph glyph-name="v" unicode="v" horiz-adv-x="491" 
d="M5 510h88l154 -417l153 417h86l-191 -510h-99z" />
    <glyph glyph-name="w" unicode="w" horiz-adv-x="782" 
d="M8 510h86l127 -415l134 415h76l127 -415l133 415h83l-170 -510h-90l-123 379l-128 -379l-90 -1z" />
    <glyph glyph-name="x" unicode="x" horiz-adv-x="505" 
d="M202 262l-181 248h98l136 -189l138 189h91l-182 -248l195 -262h-98l-150 205l-150 -205h-91z" />
    <glyph glyph-name="y" unicode="y" horiz-adv-x="493" 
d="M92 510l157 -416l152 416h87l-235 -596q-18 -46 -32 -69t-35 -34t-56 -11h-98v75h73q24 0 36 5t19.5 16.5t18.5 38.5l26 61l-200 514h87z" />
    <glyph glyph-name="z" unicode="z" horiz-adv-x="476" 
d="M35 510h406v-62l-310 -373h323v-75h-432v62l309 373h-296v75z" />
    <glyph glyph-name="braceleft" unicode="{" horiz-adv-x="329" 
d="M206 603.5q-26 -24.5 -26 -69.5q0 -10 4 -36l20 -94q5 -25 5 -41q0 -43 -25 -72.5t-71 -40.5q46 -8 71.5 -37t25.5 -72q0 -21 -6 -45l-20 -94q-4 -26 -4 -37q0 -44 26 -68.5t75 -24.5l31 -1v-71h-28q-85 0 -133.5 39.5t-48.5 109.5q0 24 4 44l19 98q4 19 4 40
q0 39 -26 60t-75 23v72q50 2 76 23t26 60q0 15 -5 40l-19 98q-4 20 -4 44q0 70 48.5 109.5t133.5 39.5h28v-71l-31 -1q-49 0 -75 -24.5z" />
    <glyph glyph-name="bar" unicode="|" horiz-adv-x="218" 
d="M68 700h82v-900h-82v900z" />
    <glyph glyph-name="braceright" unicode="}" horiz-adv-x="329" 
d="M226 191q-26 -21 -26 -60q0 -21 4 -40l19 -98q4 -20 4 -44q0 -70 -48.5 -109.5t-133.5 -39.5h-28v71l31 1q49 0 75 24.5t26 68.5q0 11 -4 37l-20 94q-6 24 -6 45q0 43 25.5 72t71.5 37q-46 11 -71 40.5t-25 72.5q0 16 5 41l20 94q4 26 4 36q0 45 -26 69.5t-75 24.5l-31 1
v71h28q85 0 133.5 -39.5t48.5 -109.5q0 -24 -4 -44l-19 -98q-5 -25 -5 -40q0 -39 26 -60t76 -23v-72q-49 -2 -75 -23z" />
    <glyph glyph-name="asciitilde" unicode="~" horiz-adv-x="524" 
d="M61 204q0 68 31 105.5t85 37.5q34 0 57.5 -11t48.5 -31q19 -14 31 -20.5t27 -6.5q30 0 42 18.5t12 51.5h69q0 -68 -31 -105t-86 -37q-35 0 -58 11t-49 30q-18 14 -30 20.5t-27 6.5q-29 0 -41 -18.5t-12 -51.5h-69z" />
    <glyph glyph-name="exclamdown" unicode="&#xa1;" horiz-adv-x="250" 
d="M184 690.5q16 -15.5 16 -40.5t-16 -40.5t-41 -15.5t-41 15.5t-16 40.5t16 40.5t41 15.5t41 -15.5zM112 491h63l12 -491h-88z" />
    <glyph glyph-name="cent" unicode="&#xa2;" horiz-adv-x="550" 
d="M380 188q38 29 49 80h82q-14 -74 -60.5 -120.5t-119.5 -58.5v-89h-76v88q-65 6 -114.5 40.5t-76 91t-26.5 128.5q0 108 59 177.5t158 80.5v94h76v-95q73 -10 119.5 -57t60.5 -120h-83q-12 49 -50 78t-92 29q-73 0 -118.5 -52t-45.5 -135q0 -84 45.5 -136.5t118.5 -52.5
q56 0 94 29z" />
    <glyph glyph-name="sterling" unicode="&#xa3;" horiz-adv-x="614" 
d="M125 363l-7 30q-8 33 -12 54t-4 45q0 62 30.5 110.5t82.5 76t115 27.5q107 0 169.5 -57.5t72.5 -162.5h-83q-10 68 -49 105t-107 37q-65 0 -106.5 -39.5t-41.5 -102.5q0 -18 4.5 -39.5t9.5 -42.5q4 -13 10 -41h213v-70h-205q3 -16 3 -34q0 -46 -19 -92.5t-54 -84.5
l423 -2v-80h-515v76q79 87 79 191q0 17 -1 26h-91v70h83z" />
    <glyph glyph-name="currency" unicode="&#xa4;" horiz-adv-x="623" 
d="M179 540q59 43 133 43q73 0 132 -43l75 75l58 -57l-74 -74q48 -59 48 -142q0 -75 -41 -133l67 -67l-58 -57l-66 66q-29 -23 -65.5 -36t-75.5 -13q-40 0 -76.5 13t-65.5 36l-66 -66l-58 58l67 67q-41 58 -41 132q0 83 48 142l-74 74l58 57zM192 221.5q46 -46.5 120 -46.5
q73 0 119 46.5t46 120.5t-46 121t-119 47q-74 0 -120 -47t-46 -121t46 -120.5z" />
    <glyph glyph-name="yen" unicode="&#xa5;" horiz-adv-x="655" 
d="M626 701l-232 -392h160v-64h-190v-80h190v-64h-190v-101h-87v101h-190v64h190v80h-190v64h160l-236 392h104l206 -347l208 347h97z" />
    <glyph glyph-name="brokenbar" unicode="&#xa6;" horiz-adv-x="218" 
d="M68 700h82v-398h-82v398zM68 196h82v-396h-82v396z" />
    <glyph glyph-name="section" unicode="&#xa7;" horiz-adv-x="591" 
d="M498.5 215.5q-28.5 -34.5 -79.5 -54.5q67 -40 67 -116q0 -68 -52.5 -109.5t-138.5 -41.5q-83 0 -136.5 40t-57.5 109h82q3 -40 33 -61t79 -21q50 0 80 20.5t30 57.5q0 30 -15.5 48t-39.5 28t-67 22q-72 20 -116.5 38.5t-73.5 49.5t-29 79t27.5 82.5t77.5 53.5
q-31 20 -48 47.5t-17 67.5q0 68 53.5 109.5t141.5 41.5q81 0 133.5 -40t56.5 -109h-82q-2 41 -31 61.5t-77 20.5q-52 0 -83 -20.5t-31 -56.5q0 -30 15.5 -48t40 -28.5t66.5 -22.5q72 -20 116.5 -38.5t74 -49.5t29.5 -78t-28.5 -81.5zM442 292q0 30 -17.5 47.5t-44.5 27.5
t-84 25q-34 9 -54 16q-93 -26 -93 -99q0 -30 17 -48t44.5 -28t83.5 -25q24 -6 56 -17q92 26 92 101z" />
    <glyph glyph-name="dieresis" unicode="&#xa8;" horiz-adv-x="400" 
d="M72 672.5q15 14.5 37 14.5q23 0 38 -14.5t15 -37.5q0 -22 -15 -36.5t-38 -14.5q-22 0 -37 14.5t-15 36.5q0 23 15 37.5zM253.5 672q15.5 15 37.5 15q23 0 37.5 -14.5t14.5 -37.5q0 -22 -15 -36.5t-37 -14.5t-37.5 14.5t-15.5 36.5t15.5 37z" />
    <glyph glyph-name="copyright" unicode="&#xa9;" horiz-adv-x="814" 
d="M91.5 530.5q47.5 81.5 130.5 128.5t184 47t184.5 -47t131.5 -128.5t48 -180.5t-48 -180.5t-131.5 -128.5t-184.5 -47t-184 47t-130.5 128.5t-47.5 180.5t47.5 180.5zM669 503q-40 69 -109 108.5t-154 39.5q-84 0 -153 -39.5t-108.5 -108.5t-39.5 -153t39.5 -153
t108.5 -108.5t153 -39.5q85 0 154 39.5t109 108.5t40 153t-40 153zM527.5 184.5q-48.5 -39.5 -120.5 -39.5q-60 0 -104.5 28t-68 75.5t-23.5 103.5t23.5 103t68 75t104.5 28q70 0 119.5 -40t61.5 -109h-68q-10 39 -40 63.5t-72 24.5q-61 0 -95 -41.5t-34 -103.5t34.5 -104.5
t94.5 -42.5q43 0 72.5 23.5t40.5 64.5h67q-12 -69 -60.5 -108.5z" />
    <glyph glyph-name="ordfeminine" unicode="&#xaa;" horiz-adv-x="427" 
d="M93.5 544q35.5 26 101.5 26h85v21q0 30 -20 47t-57 17q-30 0 -49.5 -15t-22.5 -39h-64q4 49 41.5 77t96.5 28q65 0 100.5 -30.5t35.5 -86.5v-128q0 -26 27 -26h13v-50h-33q-58 0 -58 55v7q-13 -30 -42 -48.5t-71 -18.5q-54 0 -86.5 23.5t-32.5 66.5q0 48 35.5 74z
M280 527h-87q-32 0 -50.5 -14.5t-18.5 -38.5q0 -22 16 -34t44 -12q43 0 69.5 27.5t26.5 65.5v6zM54 301h327v-59h-327v59z" />
    <glyph glyph-name="guillemotleft" unicode="&#xab;" horiz-adv-x="582" 
d="M295 510l-157 -255l157 -255h-83l-159 255l159 255h83zM529 509l-157 -255l157 -255h-83l-159 255l159 255h83z" />
    <glyph glyph-name="logicalnot" unicode="&#xac;" horiz-adv-x="524" 
d="M58 345h367v-235h-73v165h-294v70z" />
    <glyph glyph-name="registered" unicode="&#xae;" horiz-adv-x="509" 
d="M73.5 605.5q27.5 47.5 75 74.5t105.5 27q59 0 106.5 -27t75 -74t27.5 -105t-27.5 -104.5t-75 -73.5t-106.5 -27q-58 0 -105.5 27t-75 73.5t-27.5 103.5q0 58 27.5 105.5zM397 586q-21 38 -58.5 59.5t-84.5 21.5q-46 0 -83.5 -21.5t-58.5 -59.5t-21 -86q0 -47 21 -84.5
t58.5 -58.5t83.5 -21q47 0 84.5 21.5t58.5 59t21 84.5t-21 85zM263 615q40 0 64 -20t24 -52q0 -25 -14 -42t-39 -24l54 -90h-49l-48 81h-35v-81h-44v228h87zM220 505h41q19 0 31.5 10t12.5 28q0 17 -12 26t-32 9h-41v-73z" />
    <glyph glyph-name="macron" unicode="&#xaf;" horiz-adv-x="400" 
d="M63 607v62h275v-62h-275z" />
    <glyph glyph-name="degree" unicode="&#xb0;" horiz-adv-x="428" 
d="M68 626q22 37 60.5 58t85.5 21t85.5 -21t60.5 -58t22 -83q0 -45 -22 -81.5t-60.5 -57.5t-85.5 -21t-85.5 21t-60.5 57.5t-22 81.5q0 46 22 83zM285 614q-28 28 -71 28t-71 -28t-28 -71q0 -42 28 -69.5t71 -27.5t71 27.5t28 69.5q0 43 -28 71z" />
    <glyph glyph-name="plusminus" unicode="&#xb1;" horiz-adv-x="524" 
d="M58 0v69h408v-69h-408zM224 514h75v-175h167v-69h-167v-176h-75v176h-166v69h166v175z" />
    <glyph glyph-name="uni00B2" unicode="&#xb2;" horiz-adv-x="315" 
d="M26 680q0 57 37 91.5t93 34.5q60 0 96 -31.5t36 -82.5q0 -37 -18.5 -62.5t-53.5 -53.5l-106 -85h181v-55h-266v52l148 116q27 22 41.5 42t14.5 45q0 28 -20 44.5t-52 16.5q-34 0 -54.5 -19.5t-20.5 -54.5v-5h-56v7z" />
    <glyph glyph-name="uni00B3" unicode="&#xb3;" horiz-adv-x="325" 
d="M66.5 778q34.5 30 94.5 30t95.5 -28t35.5 -74q0 -29 -17 -48.5t-43 -26.5q31 -6 49.5 -28t18.5 -56q0 -52 -38 -83.5t-102 -31.5q-66 0 -102 31.5t-37 89.5h57q1 -33 23 -50.5t60 -17.5q34 0 56.5 16.5t22.5 43.5t-23 43t-61 16h-22v41h23q34 0 55 15t21 40t-19.5 40
t-50.5 15q-34 0 -54 -16.5t-21 -44.5h-57q1 54 35.5 84z" />
    <glyph glyph-name="acute" unicode="&#xb4;" horiz-adv-x="400" 
d="M170 565l85 135h96l-117 -135h-64z" />
    <glyph glyph-name="uni00B5" unicode="&#xb5;" horiz-adv-x="564" 
d="M139 -200h-83v709h82v-270q0 -82 36 -126t102 -44q68 0 109 52.5t41 141.5v246h82v-509h-74l-8 79q-53 -85 -158 -85q-42 0 -79.5 16.5t-49.5 38.5v-249z" />
    <glyph glyph-name="paragraph" unicode="&#xb6;" horiz-adv-x="671" 
d="M376 231h-101q-75 0 -131 29.5t-87 82.5t-31 122t31 122.5t87 83t130 29.5h180v-700h-78v231zM526 700h78v-700h-78v700z" />
    <glyph glyph-name="periodcentered" unicode="&#xb7;" horiz-adv-x="206" 
d="M62 333.5q16 15.5 41 15.5t41 -15.5t16 -40.5t-16 -40.5t-41 -15.5t-41 15.5t-16 40.5t16 40.5z" />
    <glyph glyph-name="cedilla" unicode="&#xb8;" horiz-adv-x="400" 
d="M228 18l-16 -60h11q40 0 65 -20.5t25 -53.5q0 -38 -25.5 -61t-66.5 -23h-90v49h77q42 0 42 33q0 13 -11.5 21t-29.5 8h-50l26 107h43z" />
    <glyph glyph-name="uni00B9" unicode="&#xb9;" horiz-adv-x="180" 
d="M85 437v244q-7 -10 -20 -10h-65v55h65q9 0 15 8t6 20v47h55v-364h-56z" />
    <glyph glyph-name="ordmasculine" unicode="&#xba;" horiz-adv-x="419" 
d="M322.5 425q-43.5 -45 -113.5 -45t-113.5 45t-43.5 118t43.5 118.5t113.5 45.5t113.5 -45.5t43.5 -118.5t-43.5 -118zM143 465.5q25 -29.5 66 -29.5t66.5 29.5t25.5 77.5t-25.5 78t-66.5 30t-66 -30t-25 -78t25 -77.5zM51 301h317v-59h-317v59z" />
    <glyph glyph-name="guillemotright" unicode="&#xbb;" horiz-adv-x="582" 
d="M287 510h83l159 -255l-159 -255h-83l157 255zM53 509h83l159 -255l-159 -255h-83l157 255z" />
    <glyph glyph-name="onequarter" unicode="&#xbc;" horiz-adv-x="615" 
d="M85 337v244q-7 -10 -20 -10h-65v55h65q9 0 15 8t6 20v47h55v-364h-56zM18 0l444 700h66l-444 -700h-66zM488 364h70v-221h59v-53h-59v-90h-56v90h-185v53zM502 304l-124 -161h124v161z" />
    <glyph glyph-name="onehalf" unicode="&#xbd;" horiz-adv-x="658" 
d="M85 337v244q-7 -10 -20 -10h-65v55h65q9 0 15 8t6 20v47h55v-364h-56zM18 0l444 700h66l-444 -700h-66zM375 244q0 57 37 91.5t93 34.5q60 0 96 -31.5t36 -82.5q0 -37 -18.5 -62.5t-53.5 -53.5l-106 -85h181v-55h-266v52l148 116q27 22 41.5 42t14.5 45q0 28 -20 44.5
t-52 16.5q-34 0 -54.5 -19.5t-20.5 -54.5v-5h-56v7z" />
    <glyph glyph-name="threequarters" unicode="&#xbe;" horiz-adv-x="760" 
d="M66.5 678q34.5 30 94.5 30t95.5 -28t35.5 -74q0 -29 -17 -48.5t-43 -26.5q31 -6 49.5 -28t18.5 -56q0 -52 -38 -83.5t-102 -31.5q-66 0 -102 31.5t-37 89.5h57q1 -33 23 -50.5t60 -17.5q34 0 56.5 16.5t22.5 43.5t-23 43t-61 16h-22v41h23q34 0 55 15t21 40t-19.5 40
t-50.5 15q-34 0 -54 -16.5t-21 -44.5h-57q1 54 35.5 84zM163 0l444 700h66l-444 -700h-66zM633 364h70v-221h59v-53h-59v-90h-56v90h-185v53zM647 304l-124 -161h124v161z" />
    <glyph glyph-name="questiondown" unicode="&#xbf;" horiz-adv-x="510" 
d="M302 609.5q-16 -15.5 -41 -15.5t-41 15.5t-16 40.5t16 40.5t41 15.5t41 -15.5t16 -40.5t-16 -40.5zM448.5 106.5q-27.5 -52.5 -79 -82.5t-120.5 -30q-64 0 -113 23t-75.5 63t-26.5 91q0 61 26 100t72 71q50 35 71 58.5t21 60.5v26h77v-35q0 -37 -14 -64t-34.5 -44.5
t-58.5 -43.5q-37 -26 -55.5 -54t-18.5 -67q0 -48 35.5 -78.5t92.5 -30.5q65 0 104.5 42t39.5 111h84q0 -64 -27.5 -116.5z" />
    <glyph glyph-name="Agrave" unicode="&#xc0;" horiz-adv-x="658" 
d="M11 0l267 700h103l266 -700h-93l-74 189h-305l-74 -189h-90zM201 268h253l-127 337zM181 896h96l83 -136h-65z" />
    <glyph glyph-name="Aacute" unicode="&#xc1;" horiz-adv-x="658" 
d="M11 0l267 700h103l266 -700h-93l-74 189h-305l-74 -189h-90zM201 268h253l-127 337zM299 761l85 135h96l-117 -135h-64z" />
    <glyph glyph-name="Acircumflex" unicode="&#xc2;" horiz-adv-x="658" 
d="M11 0l267 700h103l266 -700h-93l-74 189h-305l-74 -189h-90zM201 268h253l-127 337zM329 842l-87 -82h-78l126 136h78l126 -136h-79z" />
    <glyph glyph-name="Atilde" unicode="&#xc3;" horiz-adv-x="658" 
d="M11 0l267 700h103l266 -700h-93l-74 189h-305l-74 -189h-90zM201 268h253l-127 337zM247.5 823q-9.5 -14 -9.5 -35h-52v12q0 40 23.5 66t62.5 26q25 0 40.5 -8.5t31.5 -23.5q12 -11 20.5 -16.5t19.5 -5.5q17 0 26 14t9 35h52v-12q0 -40 -23.5 -66t-61.5 -26q-25 0 -40 8
t-32 24q-11 11 -19.5 16.5t-20.5 5.5q-17 0 -26.5 -14z" />
    <glyph glyph-name="Adieresis" unicode="&#xc4;" horiz-adv-x="658" 
d="M11 0l267 700h103l266 -700h-93l-74 189h-305l-74 -189h-90zM201 268h253l-127 337zM200.5 868.5q14.5 14.5 37.5 14.5t38 -14.5t15 -37.5q0 -22 -15 -36.5t-38 -14.5q-22 0 -37 14.5t-15 36.5q0 23 14.5 37.5zM382.5 868q15.5 15 37.5 15t37 -14.5t15 -37.5
q0 -22 -15 -36.5t-37 -14.5t-37.5 14.5t-15.5 36.5t15.5 37z" />
    <glyph glyph-name="Aring" unicode="&#xc5;" horiz-adv-x="658" 
d="M647 0h-93l-74 189h-305l-74 -189h-90l260 682q-27 14 -42.5 40t-15.5 57q0 46 33.5 78.5t82.5 32.5t82.5 -32.5t33.5 -78.5q0 -30 -15.5 -56t-41.5 -41zM284.5 825q-18.5 -18 -18.5 -46t18 -46.5t45 -18.5t45 18.5t18 46.5t-18 46t-45 18q-26 0 -44.5 -18zM201 268h253
l-127 337z" />
    <glyph glyph-name="AE" unicode="&#xc6;" horiz-adv-x="958" 
d="M556 80h372v-80h-459v177h-266l-111 -177h-91l424 700h490v-80h-359v-224h299v-80h-299v-236zM243 253h226v373z" />
    <glyph glyph-name="Ccedilla" unicode="&#xc7;" horiz-adv-x="710" 
d="M507 114.5q54 40.5 74 114.5h87q-19 -103 -89.5 -165t-176.5 -69l-10 -37h11q40 0 65 -20.5t25 -53.5q0 -38 -25.5 -61t-66.5 -23h-90v49h77q42 0 42 33q0 13 -11.5 21t-29.5 8h-50l20 83q-96 4 -167.5 49t-110.5 124.5t-39 182.5q0 105 41 186t117 125.5t176 44.5
q116 0 194.5 -63t98.5 -172h-87q-19 73 -74.5 114t-135.5 41q-72 0 -127 -35t-84.5 -97.5t-29.5 -143.5q0 -80 29.5 -143t84.5 -98t127 -35q81 0 135 40.5z" />
    <glyph glyph-name="Egrave" unicode="&#xc8;" horiz-adv-x="557" 
d="M68 700h446v-80h-359v-224h299v-80h-299v-236h372v-80h-459v700zM136 896h96l83 -136h-65z" />
    <glyph glyph-name="Eacute" unicode="&#xc9;" horiz-adv-x="557" 
d="M68 700h446v-80h-359v-224h299v-80h-299v-236h372v-80h-459v700zM254 761l85 135h96l-117 -135h-64z" />
    <glyph glyph-name="Ecircumflex" unicode="&#xca;" horiz-adv-x="557" 
d="M68 700h446v-80h-359v-224h299v-80h-299v-236h372v-80h-459v700zM284 842l-87 -82h-78l126 136h78l126 -136h-79z" />
    <glyph glyph-name="Edieresis" unicode="&#xcb;" horiz-adv-x="557" 
d="M68 700h446v-80h-359v-224h299v-80h-299v-236h372v-80h-459v700zM155.5 868.5q14.5 14.5 37.5 14.5t38 -14.5t15 -37.5q0 -22 -15 -36.5t-38 -14.5q-22 0 -37 14.5t-15 36.5q0 23 14.5 37.5zM337.5 868q15.5 15 37.5 15t37 -14.5t15 -37.5q0 -22 -15 -36.5t-37 -14.5
t-37.5 14.5t-15.5 36.5t15.5 37z" />
    <glyph glyph-name="Igrave" unicode="&#xcc;" horiz-adv-x="223" 
d="M68 700h87v-700h-87v700zM-37 896h96l83 -136h-65z" />
    <glyph glyph-name="Iacute" unicode="&#xcd;" horiz-adv-x="223" 
d="M68 700h87v-700h-87v700zM81 761l85 135h96l-117 -135h-64z" />
    <glyph glyph-name="Icircumflex" unicode="&#xce;" horiz-adv-x="223" 
d="M68 700h87v-700h-87v700zM111 842l-87 -82h-78l126 136h78l126 -136h-79z" />
    <glyph glyph-name="Idieresis" unicode="&#xcf;" horiz-adv-x="223" 
d="M68 700h87v-700h-87v700zM-17.5 868.5q14.5 14.5 37.5 14.5t38 -14.5t15 -37.5q0 -22 -15 -36.5t-38 -14.5q-22 0 -37 14.5t-15 36.5q0 23 14.5 37.5zM164.5 868q15.5 15 37.5 15t37 -14.5t15 -37.5q0 -22 -15 -36.5t-37 -14.5t-37.5 14.5t-15.5 36.5t15.5 37z" />
    <glyph glyph-name="Eth" unicode="&#xd0;" horiz-adv-x="683" 
d="M478.5 656.5q79.5 -43.5 122 -122.5t42.5 -184q0 -104 -42.5 -183.5t-122 -123t-187.5 -43.5h-207v319h-86v74h86v307h207q108 0 187.5 -43.5zM485 153q69 73 69 197q0 125 -68.5 197.5t-194.5 72.5h-120v-227h142v-74h-142v-239h120q125 0 194 73z" />
    <glyph glyph-name="Ntilde" unicode="&#xd1;" horiz-adv-x="677" 
d="M68 0v700h80l376 -540v540h85v-700h-80l-376 540v-540h-85zM251.5 823q-9.5 -14 -9.5 -35h-52v12q0 40 23.5 66t62.5 26q25 0 40.5 -8.5t31.5 -23.5q12 -11 20.5 -16.5t19.5 -5.5q17 0 26 14t9 35h52v-12q0 -40 -23.5 -66t-61.5 -26q-25 0 -40 8t-32 24
q-11 11 -19.5 16.5t-20.5 5.5q-17 0 -26.5 -14z" />
    <glyph glyph-name="Ograve" unicode="&#xd2;" horiz-adv-x="752" 
d="M667.5 167q-42.5 -81 -118.5 -127t-173 -46t-173 46t-118.5 127t-42.5 183t42.5 183t118.5 127t173 46t173 -46t118.5 -127t42.5 -183t-42.5 -183zM162 207.5q31 -62.5 86.5 -98t127.5 -35.5t127.5 35.5t86.5 98t31 142.5t-31 142.5t-86.5 98t-127.5 35.5t-127.5 -35.5
t-86.5 -98t-31 -142.5t31 -142.5zM228 896h96l83 -136h-65z" />
    <glyph glyph-name="Oacute" unicode="&#xd3;" horiz-adv-x="752" 
d="M667.5 167q-42.5 -81 -118.5 -127t-173 -46t-173 46t-118.5 127t-42.5 183t42.5 183t118.5 127t173 46t173 -46t118.5 -127t42.5 -183t-42.5 -183zM162 207.5q31 -62.5 86.5 -98t127.5 -35.5t127.5 35.5t86.5 98t31 142.5t-31 142.5t-86.5 98t-127.5 35.5t-127.5 -35.5
t-86.5 -98t-31 -142.5t31 -142.5zM346 761l85 135h96l-117 -135h-64z" />
    <glyph glyph-name="Ocircumflex" unicode="&#xd4;" horiz-adv-x="752" 
d="M667.5 167q-42.5 -81 -118.5 -127t-173 -46t-173 46t-118.5 127t-42.5 183t42.5 183t118.5 127t173 46t173 -46t118.5 -127t42.5 -183t-42.5 -183zM162 207.5q31 -62.5 86.5 -98t127.5 -35.5t127.5 35.5t86.5 98t31 142.5t-31 142.5t-86.5 98t-127.5 35.5t-127.5 -35.5
t-86.5 -98t-31 -142.5t31 -142.5zM376 842l-87 -82h-78l126 136h78l126 -136h-79z" />
    <glyph glyph-name="Otilde" unicode="&#xd5;" horiz-adv-x="752" 
d="M667.5 167q-42.5 -81 -118.5 -127t-173 -46t-173 46t-118.5 127t-42.5 183t42.5 183t118.5 127t173 46t173 -46t118.5 -127t42.5 -183t-42.5 -183zM162 207.5q31 -62.5 86.5 -98t127.5 -35.5t127.5 35.5t86.5 98t31 142.5t-31 142.5t-86.5 98t-127.5 35.5t-127.5 -35.5
t-86.5 -98t-31 -142.5t31 -142.5zM294.5 823q-9.5 -14 -9.5 -35h-52v12q0 40 23.5 66t62.5 26q25 0 40.5 -8.5t31.5 -23.5q12 -11 20.5 -16.5t19.5 -5.5q17 0 26 14t9 35h52v-12q0 -40 -23.5 -66t-61.5 -26q-25 0 -40 8t-32 24q-11 11 -19.5 16.5t-20.5 5.5q-17 0 -26.5 -14
z" />
    <glyph glyph-name="Odieresis" unicode="&#xd6;" horiz-adv-x="752" 
d="M667.5 167q-42.5 -81 -118.5 -127t-173 -46t-173 46t-118.5 127t-42.5 183t42.5 183t118.5 127t173 46t173 -46t118.5 -127t42.5 -183t-42.5 -183zM162 207.5q31 -62.5 86.5 -98t127.5 -35.5t127.5 35.5t86.5 98t31 142.5t-31 142.5t-86.5 98t-127.5 35.5t-127.5 -35.5
t-86.5 -98t-31 -142.5t31 -142.5zM247.5 868.5q14.5 14.5 37.5 14.5t38 -14.5t15 -37.5q0 -22 -15 -36.5t-38 -14.5q-22 0 -37 14.5t-15 36.5q0 23 14.5 37.5zM429.5 868q15.5 15 37.5 15t37 -14.5t15 -37.5q0 -22 -15 -36.5t-37 -14.5t-37.5 14.5t-15.5 36.5t15.5 37z" />
    <glyph glyph-name="multiply" unicode="&#xd7;" horiz-adv-x="524" 
d="M117 481l147 -147l145 146l49 -49l-145 -145l147 -147l-53 -53l-147 147l-145 -145l-49 49l146 145l-147 147z" />
    <glyph glyph-name="Oslash" unicode="&#xd8;" horiz-adv-x="752" 
d="M636 579q36 -46 55 -104.5t19 -124.5q0 -102 -42.5 -183t-118.5 -127t-173 -46q-62 0 -116.5 20t-97.5 57l-72 -77l-48 48l74 79q-36 46 -55 104t-19 125q0 102 42.5 183t118.5 127t173 46q61 0 115.5 -20t98.5 -58l72 78l48 -48zM174 183l361 387q-64 56 -159 56
q-72 0 -127.5 -35.5t-86.5 -98t-31 -142.5q0 -98 43 -167zM579 517l-361 -386q62 -57 158 -57q72 0 127.5 35.5t86.5 98t31 142.5q0 97 -42 167z" />
    <glyph glyph-name="Ugrave" unicode="&#xd9;" horiz-adv-x="662" 
d="M151 700v-406q0 -220 179 -220q181 0 181 220v406h87v-401q0 -150 -68.5 -227.5t-199.5 -77.5t-198.5 77.5t-67.5 227.5v401h87zM183 896h96l83 -136h-65z" />
    <glyph glyph-name="Uacute" unicode="&#xda;" horiz-adv-x="662" 
d="M151 700v-406q0 -220 179 -220q181 0 181 220v406h87v-401q0 -150 -68.5 -227.5t-199.5 -77.5t-198.5 77.5t-67.5 227.5v401h87zM301 761l85 135h96l-117 -135h-64z" />
    <glyph glyph-name="Ucircumflex" unicode="&#xdb;" horiz-adv-x="662" 
d="M151 700v-406q0 -220 179 -220q181 0 181 220v406h87v-401q0 -150 -68.5 -227.5t-199.5 -77.5t-198.5 77.5t-67.5 227.5v401h87zM331 842l-87 -82h-78l126 136h78l126 -136h-79z" />
    <glyph glyph-name="Udieresis" unicode="&#xdc;" horiz-adv-x="662" 
d="M151 700v-406q0 -220 179 -220q181 0 181 220v406h87v-401q0 -150 -68.5 -227.5t-199.5 -77.5t-198.5 77.5t-67.5 227.5v401h87zM202.5 868.5q14.5 14.5 37.5 14.5t38 -14.5t15 -37.5q0 -22 -15 -36.5t-38 -14.5q-22 0 -37 14.5t-15 36.5q0 23 14.5 37.5zM384.5 868
q15.5 15 37.5 15t37 -14.5t15 -37.5q0 -22 -15 -36.5t-37 -14.5t-37.5 14.5t-15.5 36.5t15.5 37z" />
    <glyph glyph-name="Yacute" unicode="&#xdd;" horiz-adv-x="633" 
d="M9 701h102l206 -348l209 348h98l-264 -442v-259h-87v259zM287 761l85 135h96l-117 -135h-64z" />
    <glyph glyph-name="Thorn" unicode="&#xde;" horiz-adv-x="594" 
d="M155 700v-121h167q118 0 182.5 -56t64.5 -160q0 -105 -66 -160t-182 -55h-166v-148h-87v700h87zM155 228h165q77 0 119 34t42 101q0 68 -41.5 102t-118.5 34h-166v-271z" />
    <glyph glyph-name="germandbls" unicode="&#xdf;" horiz-adv-x="589" 
d="M233 12v72q44 -17 103 -17q61 0 100 34.5t39 91.5q0 66 -51 99.5t-136 33.5q-8 0 -28 -2v72q80 1 121 35.5t41 88.5q0 52 -36 82.5t-96 30.5q-63 0 -101.5 -40t-38.5 -108v-485h-82v480q0 72 29.5 123t79.5 77t113 26t112.5 -22t76.5 -62.5t27 -93.5q-1 -58 -34 -100
t-83 -55q81 -13 125.5 -59t44.5 -123q0 -59 -28 -104t-78 -69t-113 -24q-54 0 -107 18z" />
    <glyph glyph-name="agrave" unicode="&#xe0;" horiz-adv-x="540" 
d="M533 75v-75h-45q-49 0 -70 20t-22 59q-59 -85 -171 -85q-85 0 -136.5 40t-51.5 109q0 77 52.5 118t152.5 41h150v35q0 50 -33.5 78t-93.5 28q-53 0 -87.5 -23.5t-42.5 -62.5h-82q9 75 66.5 117t149.5 42q98 0 151.5 -47.5t53.5 -136.5v-220q0 -37 34 -37h25zM392 233
h-158q-114 0 -114 -85q0 -38 30 -61t81 -23q75 0 118 39.5t43 104.5v25zM117 706h96l83 -136h-65z" />
    <glyph glyph-name="aacute" unicode="&#xe1;" horiz-adv-x="540" 
d="M533 75v-75h-45q-49 0 -70 20t-22 59q-59 -85 -171 -85q-85 0 -136.5 40t-51.5 109q0 77 52.5 118t152.5 41h150v35q0 50 -33.5 78t-93.5 28q-53 0 -87.5 -23.5t-42.5 -62.5h-82q9 75 66.5 117t149.5 42q98 0 151.5 -47.5t53.5 -136.5v-220q0 -37 34 -37h25zM392 233
h-158q-114 0 -114 -85q0 -38 30 -61t81 -23q75 0 118 39.5t43 104.5v25zM235 571l85 135h96l-117 -135h-64z" />
    <glyph glyph-name="acircumflex" unicode="&#xe2;" horiz-adv-x="540" 
d="M533 75v-75h-45q-49 0 -70 20t-22 59q-59 -85 -171 -85q-85 0 -136.5 40t-51.5 109q0 77 52.5 118t152.5 41h150v35q0 50 -33.5 78t-93.5 28q-53 0 -87.5 -23.5t-42.5 -62.5h-82q9 75 66.5 117t149.5 42q98 0 151.5 -47.5t53.5 -136.5v-220q0 -37 34 -37h25zM392 233
h-158q-114 0 -114 -85q0 -38 30 -61t81 -23q75 0 118 39.5t43 104.5v25zM265 652l-87 -82h-78l126 136h78l126 -136h-79z" />
    <glyph glyph-name="atilde" unicode="&#xe3;" horiz-adv-x="540" 
d="M533 75v-75h-45q-49 0 -70 20t-22 59q-59 -85 -171 -85q-85 0 -136.5 40t-51.5 109q0 77 52.5 118t152.5 41h150v35q0 50 -33.5 78t-93.5 28q-53 0 -87.5 -23.5t-42.5 -62.5h-82q9 75 66.5 117t149.5 42q98 0 151.5 -47.5t53.5 -136.5v-220q0 -37 34 -37h25zM392 233
h-158q-114 0 -114 -85q0 -38 30 -61t81 -23q75 0 118 39.5t43 104.5v25zM183.5 633q-9.5 -14 -9.5 -35h-52v12q0 40 23.5 66t62.5 26q25 0 40.5 -8.5t31.5 -23.5q12 -11 20.5 -16.5t19.5 -5.5q17 0 26 14t9 35h52v-12q0 -40 -23.5 -66t-61.5 -26q-25 0 -40 8t-32 24
q-11 11 -19.5 16.5t-20.5 5.5q-17 0 -26.5 -14z" />
    <glyph glyph-name="adieresis" unicode="&#xe4;" horiz-adv-x="540" 
d="M533 75v-75h-45q-49 0 -70 20t-22 59q-59 -85 -171 -85q-85 0 -136.5 40t-51.5 109q0 77 52.5 118t152.5 41h150v35q0 50 -33.5 78t-93.5 28q-53 0 -87.5 -23.5t-42.5 -62.5h-82q9 75 66.5 117t149.5 42q98 0 151.5 -47.5t53.5 -136.5v-220q0 -37 34 -37h25zM392 233
h-158q-114 0 -114 -85q0 -38 30 -61t81 -23q75 0 118 39.5t43 104.5v25zM136.5 678.5q14.5 14.5 37.5 14.5t38 -14.5t15 -37.5q0 -22 -15 -36.5t-38 -14.5q-22 0 -37 14.5t-15 36.5q0 23 14.5 37.5zM318.5 678q15.5 15 37.5 15t37 -14.5t15 -37.5q0 -22 -15 -36.5t-37 -14.5
t-37.5 14.5t-15.5 36.5t15.5 37z" />
    <glyph glyph-name="aring" unicode="&#xe5;" horiz-adv-x="540" 
d="M533 75v-75h-45q-49 0 -70 20t-22 59q-59 -85 -171 -85q-85 0 -136.5 40t-51.5 109q0 77 52.5 118t152.5 41h150v35q0 50 -33.5 78t-93.5 28q-53 0 -87.5 -23.5t-42.5 -62.5h-82q9 75 66.5 117t149.5 42q98 0 151.5 -47.5t53.5 -136.5v-220q0 -37 34 -37h25zM392 233
h-158q-114 0 -114 -85q0 -38 30 -61t81 -23q75 0 118 39.5t43 104.5v25zM182.5 747.5q33.5 32.5 82.5 32.5t82.5 -32.5t33.5 -78.5q0 -47 -33.5 -79.5t-82.5 -32.5t-82.5 32.5t-33.5 79.5q0 46 33.5 78.5zM309.5 715q-18.5 18 -44.5 18q-27 0 -45 -18t-18 -46t18 -46.5
t45 -18.5t45 18.5t18 46.5t-18.5 46z" />
    <glyph glyph-name="ae" unicode="&#xe6;" horiz-adv-x="903" 
d="M467 239v-7q2 -75 46 -120t115 -45q55 0 93.5 27.5t51.5 76.5h83q-15 -78 -75 -127.5t-147 -49.5q-67 0 -118.5 29t-82.5 82q-29 -51 -81.5 -81t-121.5 -30q-87 0 -140 40t-53 109q0 77 52.5 118t152.5 41h150v35q0 50 -33.5 78t-93.5 28q-53 0 -87.5 -23.5t-42.5 -62.5
h-82q9 75 66.5 117t149.5 42q64 0 108.5 -23t66.5 -67q30 43 76 66.5t103 23.5q70 0 124 -29t85 -84t33 -129q0 -11 -2 -35h-396zM522 406q-44 -38 -50 -99h308q-6 65 -48.5 101t-107.5 36q-58 0 -102 -38zM392 233h-158q-114 0 -114 -85q0 -38 30 -61t81 -23q75 0 118 39.5
t43 104.5v25z" />
    <glyph glyph-name="ccedilla" unicode="&#xe7;" horiz-adv-x="550" 
d="M380 96q38 29 49 80h82q-15 -79 -68 -127t-135 -54l-10 -37h11q40 0 65 -20.5t25 -53.5q0 -38 -25.5 -61t-66.5 -23h-90v49h77q42 0 42 33q0 13 -11.5 21t-29.5 8h-50l20 84q-68 4 -119.5 38t-79.5 91.5t-28 131.5q0 77 31.5 136t88.5 91.5t131 32.5q90 0 148.5 -48
t73.5 -132h-83q-12 49 -50 78t-92 29q-73 0 -118.5 -52t-45.5 -135q0 -84 45.5 -136.5t118.5 -52.5q56 0 94 29z" />
    <glyph glyph-name="egrave" unicode="&#xe8;" horiz-adv-x="560" 
d="M68.5 392q30.5 59 85.5 91.5t126 32.5q70 0 124 -29t85 -84t33 -129q0 -11 -2 -35h-396v-7q2 -75 46 -120t115 -45q55 0 93.5 27.5t51.5 76.5h83q-15 -78 -75 -127.5t-147 -49.5q-76 0 -133 32.5t-88.5 92t-31.5 136.5q0 78 30.5 137zM437 307q-6 65 -48.5 101t-107.5 36
q-58 0 -102 -38t-50 -99h308zM129 706h96l83 -136h-65z" />
    <glyph glyph-name="eacute" unicode="&#xe9;" horiz-adv-x="560" 
d="M68.5 392q30.5 59 85.5 91.5t126 32.5q70 0 124 -29t85 -84t33 -129q0 -11 -2 -35h-396v-7q2 -75 46 -120t115 -45q55 0 93.5 27.5t51.5 76.5h83q-15 -78 -75 -127.5t-147 -49.5q-76 0 -133 32.5t-88.5 92t-31.5 136.5q0 78 30.5 137zM437 307q-6 65 -48.5 101t-107.5 36
q-58 0 -102 -38t-50 -99h308zM247 571l85 135h96l-117 -135h-64z" />
    <glyph glyph-name="ecircumflex" unicode="&#xea;" horiz-adv-x="560" 
d="M68.5 392q30.5 59 85.5 91.5t126 32.5q70 0 124 -29t85 -84t33 -129q0 -11 -2 -35h-396v-7q2 -75 46 -120t115 -45q55 0 93.5 27.5t51.5 76.5h83q-15 -78 -75 -127.5t-147 -49.5q-76 0 -133 32.5t-88.5 92t-31.5 136.5q0 78 30.5 137zM437 307q-6 65 -48.5 101t-107.5 36
q-58 0 -102 -38t-50 -99h308zM277 652l-87 -82h-78l126 136h78l126 -136h-79z" />
    <glyph glyph-name="edieresis" unicode="&#xeb;" horiz-adv-x="560" 
d="M68.5 392q30.5 59 85.5 91.5t126 32.5q70 0 124 -29t85 -84t33 -129q0 -11 -2 -35h-396v-7q2 -75 46 -120t115 -45q55 0 93.5 27.5t51.5 76.5h83q-15 -78 -75 -127.5t-147 -49.5q-76 0 -133 32.5t-88.5 92t-31.5 136.5q0 78 30.5 137zM437 307q-6 65 -48.5 101t-107.5 36
q-58 0 -102 -38t-50 -99h308zM148.5 678.5q14.5 14.5 37.5 14.5t38 -14.5t15 -37.5q0 -22 -15 -36.5t-38 -14.5q-22 0 -37 14.5t-15 36.5q0 23 14.5 37.5zM330.5 678q15.5 15 37.5 15t37 -14.5t15 -37.5q0 -22 -15 -36.5t-37 -14.5t-37.5 14.5t-15.5 36.5t15.5 37z" />
    <glyph glyph-name="igrave" unicode="&#xec;" horiz-adv-x="194" 
d="M56 510h82v-510h-82v510zM-50 706h96l83 -136h-65z" />
    <glyph glyph-name="iacute" unicode="&#xed;" horiz-adv-x="194" 
d="M56 510h82v-510h-82v510zM68 571l85 135h96l-117 -135h-64z" />
    <glyph glyph-name="icircumflex" unicode="&#xee;" horiz-adv-x="194" 
d="M56 510h82v-510h-82v510zM98 652l-87 -82h-78l126 136h78l126 -136h-79z" />
    <glyph glyph-name="idieresis" unicode="&#xef;" horiz-adv-x="194" 
d="M56 510h82v-510h-82v510zM-30.5 678.5q14.5 14.5 37.5 14.5t38 -14.5t15 -37.5q0 -22 -15 -36.5t-38 -14.5q-22 0 -37 14.5t-15 36.5q0 23 14.5 37.5zM151.5 678q15.5 15 37.5 15t37 -14.5t15 -37.5q0 -22 -15 -36.5t-37 -14.5t-37.5 14.5t-15.5 36.5t15.5 37z" />
    <glyph glyph-name="eth" unicode="&#xf0;" horiz-adv-x="590" 
d="M499 445.5q43 -84.5 43 -182.5q0 -77 -29.5 -138t-87 -96t-137.5 -35q-74 0 -130.5 30t-88 83t-31.5 121q0 71 33 124t87.5 82t117.5 29q51 0 90.5 -16t72.5 -48q-35 84 -123 158l-119 -74l-32 56l96 59q-55 36 -100 58l46 50q67 -30 120 -67l116 72l32 -56l-94 -58
q75 -67 118 -151.5zM411.5 114q46.5 48 46.5 126q0 48 -23 83.5t-61.5 54t-85.5 18.5q-48 0 -86 -22t-59 -60t-21 -86q0 -73 46 -117.5t120 -44.5q77 0 123.5 48z" />
    <glyph glyph-name="ntilde" unicode="&#xf1;" horiz-adv-x="561" 
d="M455.5 460q56.5 -56 56.5 -176v-284h-82v279q0 79 -35.5 120.5t-102.5 41.5q-72 0 -113 -50t-41 -136v-255h-82v510h71l11 -69q58 75 168 75q93 0 149.5 -56zM217.5 633q-9.5 -14 -9.5 -35h-52v12q0 40 23.5 66t62.5 26q25 0 40.5 -8.5t31.5 -23.5q12 -11 20.5 -16.5
t19.5 -5.5q17 0 26 14t9 35h52v-12q0 -40 -23.5 -66t-61.5 -26q-25 0 -40 8t-32 24q-11 11 -19.5 16.5t-20.5 5.5q-17 0 -26.5 -14z" />
    <glyph glyph-name="ograve" unicode="&#xf2;" horiz-adv-x="582" 
d="M159.5 27q-57.5 33 -89.5 92t-32 136t32 136t89.5 92t131.5 33t131.5 -33t89.5 -92t32 -136t-32 -136t-89.5 -92t-131.5 -33t-131.5 33zM379.5 91q38.5 24 59.5 67t21 97t-21 97t-59.5 67t-88.5 24t-88.5 -24t-59.5 -67t-21 -97t21 -97t59.5 -67t88.5 -24t88.5 24z
M143 706h96l83 -136h-65z" />
    <glyph glyph-name="oacute" unicode="&#xf3;" horiz-adv-x="582" 
d="M159.5 27q-57.5 33 -89.5 92t-32 136t32 136t89.5 92t131.5 33t131.5 -33t89.5 -92t32 -136t-32 -136t-89.5 -92t-131.5 -33t-131.5 33zM379.5 91q38.5 24 59.5 67t21 97t-21 97t-59.5 67t-88.5 24t-88.5 -24t-59.5 -67t-21 -97t21 -97t59.5 -67t88.5 -24t88.5 24z
M261 571l85 135h96l-117 -135h-64z" />
    <glyph glyph-name="ocircumflex" unicode="&#xf4;" horiz-adv-x="582" 
d="M159.5 27q-57.5 33 -89.5 92t-32 136t32 136t89.5 92t131.5 33t131.5 -33t89.5 -92t32 -136t-32 -136t-89.5 -92t-131.5 -33t-131.5 33zM379.5 91q38.5 24 59.5 67t21 97t-21 97t-59.5 67t-88.5 24t-88.5 -24t-59.5 -67t-21 -97t21 -97t59.5 -67t88.5 -24t88.5 24z
M291 652l-87 -82h-78l126 136h78l126 -136h-79z" />
    <glyph glyph-name="otilde" unicode="&#xf5;" horiz-adv-x="582" 
d="M159.5 27q-57.5 33 -89.5 92t-32 136t32 136t89.5 92t131.5 33t131.5 -33t89.5 -92t32 -136t-32 -136t-89.5 -92t-131.5 -33t-131.5 33zM379.5 91q38.5 24 59.5 67t21 97t-21 97t-59.5 67t-88.5 24t-88.5 -24t-59.5 -67t-21 -97t21 -97t59.5 -67t88.5 -24t88.5 24z
M209.5 633q-9.5 -14 -9.5 -35h-52v12q0 40 23.5 66t62.5 26q25 0 40.5 -8.5t31.5 -23.5q12 -11 20.5 -16.5t19.5 -5.5q17 0 26 14t9 35h52v-12q0 -40 -23.5 -66t-61.5 -26q-25 0 -40 8t-32 24q-11 11 -19.5 16.5t-20.5 5.5q-17 0 -26.5 -14z" />
    <glyph glyph-name="odieresis" unicode="&#xf6;" horiz-adv-x="582" 
d="M159.5 27q-57.5 33 -89.5 92t-32 136t32 136t89.5 92t131.5 33t131.5 -33t89.5 -92t32 -136t-32 -136t-89.5 -92t-131.5 -33t-131.5 33zM379.5 91q38.5 24 59.5 67t21 97t-21 97t-59.5 67t-88.5 24t-88.5 -24t-59.5 -67t-21 -97t21 -97t59.5 -67t88.5 -24t88.5 24z
M162.5 678.5q14.5 14.5 37.5 14.5t38 -14.5t15 -37.5q0 -22 -15 -36.5t-38 -14.5q-22 0 -37 14.5t-15 36.5q0 23 14.5 37.5zM344.5 678q15.5 15 37.5 15t37 -14.5t15 -37.5q0 -22 -15 -36.5t-37 -14.5t-37.5 14.5t-15.5 36.5t15.5 37z" />
    <glyph glyph-name="divide" unicode="&#xf7;" horiz-adv-x="524" 
d="M222.5 513q15.5 15 40.5 15q24 0 39.5 -15t15.5 -40t-15.5 -40t-39.5 -15q-25 0 -40.5 15t-15.5 40t15.5 40zM58 252v69h408v-69h-408zM222.5 153q15.5 15 40.5 15q24 0 39.5 -15t15.5 -40t-15.5 -40t-39.5 -15q-25 0 -40.5 15t-15.5 40t15.5 40z" />
    <glyph glyph-name="oslash" unicode="&#xf8;" horiz-adv-x="582" 
d="M493 421q51 -70 51 -166q0 -77 -32 -136t-89.5 -92t-131.5 -33q-93 0 -159 52l-50 -52l-44 42l51 53q-51 70 -51 166q0 77 32 136t89.5 92t131.5 33q93 0 159 -52l50 52l44 -42zM147 149l249 259q-45 35 -105 35q-50 0 -88.5 -24t-59.5 -67t-21 -97q0 -59 25 -106z
M435 361l-249 -259q45 -35 105 -35q50 0 88.5 24t59.5 67t21 97q0 59 -25 106z" />
    <glyph glyph-name="ugrave" unicode="&#xf9;" horiz-adv-x="551" 
d="M495 510v-510h-71l-11 68q-58 -74 -163 -74q-91 0 -146 56t-55 176v284h82v-279q0 -79 34.5 -120.5t98.5 -41.5q70 0 109.5 50t39.5 136v255h82zM124 706h96l83 -136h-65z" />
    <glyph glyph-name="uacute" unicode="&#xfa;" horiz-adv-x="551" 
d="M495 510v-510h-71l-11 68q-58 -74 -163 -74q-91 0 -146 56t-55 176v284h82v-279q0 -79 34.5 -120.5t98.5 -41.5q70 0 109.5 50t39.5 136v255h82zM242 571l85 135h96l-117 -135h-64z" />
    <glyph glyph-name="ucircumflex" unicode="&#xfb;" horiz-adv-x="551" 
d="M495 510v-510h-71l-11 68q-58 -74 -163 -74q-91 0 -146 56t-55 176v284h82v-279q0 -79 34.5 -120.5t98.5 -41.5q70 0 109.5 50t39.5 136v255h82zM272 652l-87 -82h-78l126 136h78l126 -136h-79z" />
    <glyph glyph-name="udieresis" unicode="&#xfc;" horiz-adv-x="551" 
d="M495 510v-510h-71l-11 68q-58 -74 -163 -74q-91 0 -146 56t-55 176v284h82v-279q0 -79 34.5 -120.5t98.5 -41.5q70 0 109.5 50t39.5 136v255h82zM143.5 678.5q14.5 14.5 37.5 14.5t38 -14.5t15 -37.5q0 -22 -15 -36.5t-38 -14.5q-22 0 -37 14.5t-15 36.5q0 23 14.5 37.5z
M325.5 678q15.5 15 37.5 15t37 -14.5t15 -37.5q0 -22 -15 -36.5t-37 -14.5t-37.5 14.5t-15.5 36.5t15.5 37z" />
    <glyph glyph-name="yacute" unicode="&#xfd;" horiz-adv-x="493" 
d="M92 510l157 -416l152 416h87l-235 -596q-18 -46 -32 -69t-35 -34t-56 -11h-98v75h73q24 0 36 5t19.5 16.5t18.5 38.5l26 61l-200 514h87zM215 571l85 135h96l-117 -135h-64z" />
    <glyph glyph-name="thorn" unicode="&#xfe;" horiz-adv-x="596" 
d="M138 700v-272q64 88 175 88q71 0 126.5 -31t87 -90t31.5 -140q0 -77 -31.5 -136t-87.5 -92t-126 -33q-62 0 -106 22.5t-69 61.5v-278h-82v900h82zM427.5 390.5q-46.5 52.5 -122.5 52.5q-49 0 -87.5 -23.5t-59.5 -66t-21 -96.5q0 -55 21 -98.5t59.5 -67.5t87.5 -24
q76 0 122.5 52.5t46.5 135.5t-46.5 135.5z" />
    <glyph glyph-name="ydieresis" unicode="&#xff;" horiz-adv-x="493" 
d="M92 510l157 -416l152 416h87l-235 -596q-18 -46 -32 -69t-35 -34t-56 -11h-98v75h73q24 0 36 5t19.5 16.5t18.5 38.5l26 61l-200 514h87zM116.5 678.5q14.5 14.5 37.5 14.5t38 -14.5t15 -37.5q0 -22 -15 -36.5t-38 -14.5q-22 0 -37 14.5t-15 36.5q0 23 14.5 37.5z
M298.5 678q15.5 15 37.5 15t37 -14.5t15 -37.5q0 -22 -15 -36.5t-37 -14.5t-37.5 14.5t-15.5 36.5t15.5 37z" />
    <glyph glyph-name="Amacron" unicode="&#x100;" horiz-adv-x="658" 
d="M11 0l267 700h103l266 -700h-93l-74 189h-305l-74 -189h-90zM201 268h253l-127 337zM192 803v62h275v-62h-275z" />
    <glyph glyph-name="amacron" unicode="&#x101;" horiz-adv-x="540" 
d="M533 75v-75h-45q-49 0 -70 20t-22 59q-59 -85 -171 -85q-85 0 -136.5 40t-51.5 109q0 77 52.5 118t152.5 41h150v35q0 50 -33.5 78t-93.5 28q-53 0 -87.5 -23.5t-42.5 -62.5h-82q9 75 66.5 117t149.5 42q98 0 151.5 -47.5t53.5 -136.5v-220q0 -37 34 -37h25zM392 233
h-158q-114 0 -114 -85q0 -38 30 -61t81 -23q75 0 118 39.5t43 104.5v25zM128 613v62h275v-62h-275z" />
    <glyph glyph-name="Abreve" unicode="&#x102;" horiz-adv-x="658" 
d="M11 0l267 700h103l266 -700h-93l-74 189h-305l-74 -189h-90zM201 268h253l-127 337zM256 896q0 -33 20 -53.5t52 -20.5t53 20.5t21 53.5h65q-1 -62 -40 -99.5t-100 -37.5q-60 0 -97.5 37t-38.5 100h65z" />
    <glyph glyph-name="abreve" unicode="&#x103;" horiz-adv-x="540" 
d="M533 75v-75h-45q-49 0 -70 20t-22 59q-59 -85 -171 -85q-85 0 -136.5 40t-51.5 109q0 77 52.5 118t152.5 41h150v35q0 50 -33.5 78t-93.5 28q-53 0 -87.5 -23.5t-42.5 -62.5h-82q9 75 66.5 117t149.5 42q98 0 151.5 -47.5t53.5 -136.5v-220q0 -37 34 -37h25zM392 233
h-158q-114 0 -114 -85q0 -38 30 -61t81 -23q75 0 118 39.5t43 104.5v25zM192 706q0 -33 20 -53.5t52 -20.5t53 20.5t21 53.5h65q-1 -62 -40 -99.5t-100 -37.5q-60 0 -97.5 37t-38.5 100h65z" />
    <glyph glyph-name="Aogonek" unicode="&#x104;" horiz-adv-x="658" 
d="M653 -140v-60h-78q-46 0 -73.5 23t-27.5 62q0 33 20.5 61t58.5 56l-73 187h-305l-74 -189h-90l267 700h103l266 -700q-50 -27 -77 -51.5t-27 -51.5q0 -37 46 -37h64zM201 268h253l-127 337z" />
    <glyph glyph-name="aogonek" unicode="&#x105;" horiz-adv-x="540" 
d="M539 -140v-60h-78q-46 0 -73.5 23t-27.5 62q0 34 22 62.5t62 58.5q-48 14 -48 73q-59 -85 -171 -85q-85 0 -136.5 40t-51.5 109q0 77 52.5 118t152.5 41h150v35q0 50 -33.5 78t-93.5 28q-53 0 -87.5 -23.5t-42.5 -62.5h-82q9 75 66.5 117t149.5 42q98 0 151.5 -47.5
t53.5 -136.5v-220q0 -37 34 -37h25v-75q-50 -27 -77 -51.5t-27 -51.5q0 -37 46 -37h64zM392 233h-158q-114 0 -114 -85q0 -38 30 -61t81 -23q75 0 118 39.5t43 104.5v25z" />
    <glyph glyph-name="Cacute" unicode="&#x106;" horiz-adv-x="710" 
d="M83 536q41 81 117 125.5t176 44.5q116 0 194.5 -63t98.5 -172h-87q-19 73 -74.5 114t-135.5 41q-72 0 -127 -35t-84.5 -97.5t-29.5 -143.5q0 -80 29.5 -143t84.5 -98t127 -35q81 0 135 40.5t74 114.5h87q-20 -109 -97.5 -172t-194.5 -63q-100 0 -176 44.5t-117 125
t-41 186.5q0 105 41 186zM346 761l85 135h96l-117 -135h-64z" />
    <glyph glyph-name="cacute" unicode="&#x107;" horiz-adv-x="550" 
d="M436 42.5q-59 -48.5 -150 -48.5q-74 0 -130 33t-87 92.5t-31 136.5t31.5 136t88.5 91.5t131 32.5q90 0 148.5 -48t73.5 -132h-83q-12 49 -50 78t-92 29q-73 0 -118.5 -52t-45.5 -135q0 -84 45.5 -136.5t118.5 -52.5q56 0 94 29t49 80h82q-16 -85 -75 -133.5zM259 571
l85 135h96l-117 -135h-64z" />
    <glyph glyph-name="Ccircumflex" unicode="&#x108;" horiz-adv-x="710" 
d="M83 536q41 81 117 125.5t176 44.5q116 0 194.5 -63t98.5 -172h-87q-19 73 -74.5 114t-135.5 41q-72 0 -127 -35t-84.5 -97.5t-29.5 -143.5q0 -80 29.5 -143t84.5 -98t127 -35q81 0 135 40.5t74 114.5h87q-20 -109 -97.5 -172t-194.5 -63q-100 0 -176 44.5t-117 125
t-41 186.5q0 105 41 186zM376 842l-87 -82h-78l126 136h78l126 -136h-79z" />
    <glyph glyph-name="ccircumflex" unicode="&#x109;" horiz-adv-x="550" 
d="M436 42.5q-59 -48.5 -150 -48.5q-74 0 -130 33t-87 92.5t-31 136.5t31.5 136t88.5 91.5t131 32.5q90 0 148.5 -48t73.5 -132h-83q-12 49 -50 78t-92 29q-73 0 -118.5 -52t-45.5 -135q0 -84 45.5 -136.5t118.5 -52.5q56 0 94 29t49 80h82q-16 -85 -75 -133.5zM289 652
l-87 -82h-78l126 136h78l126 -136h-79z" />
    <glyph glyph-name="Cdotaccent" unicode="&#x10a;" horiz-adv-x="710" 
d="M83 536q41 81 117 125.5t176 44.5q116 0 194.5 -63t98.5 -172h-87q-19 73 -74.5 114t-135.5 41q-72 0 -127 -35t-84.5 -97.5t-29.5 -143.5q0 -80 29.5 -143t84.5 -98t127 -35q81 0 135 40.5t74 114.5h87q-20 -109 -97.5 -172t-194.5 -63q-100 0 -176 44.5t-117 125
t-41 186.5q0 105 41 186zM338.5 884q14.5 14 37.5 14t37.5 -14t14.5 -36t-14.5 -36.5t-37.5 -14.5t-37.5 14.5t-14.5 36.5t14.5 36z" />
    <glyph glyph-name="cdotaccent" unicode="&#x10b;" horiz-adv-x="550" 
d="M436 42.5q-59 -48.5 -150 -48.5q-74 0 -130 33t-87 92.5t-31 136.5t31.5 136t88.5 91.5t131 32.5q90 0 148.5 -48t73.5 -132h-83q-12 49 -50 78t-92 29q-73 0 -118.5 -52t-45.5 -135q0 -84 45.5 -136.5t118.5 -52.5q56 0 94 29t49 80h82q-16 -85 -75 -133.5zM251.5 694
q14.5 14 37.5 14t37.5 -14t14.5 -36t-14.5 -36.5t-37.5 -14.5t-37.5 14.5t-14.5 36.5t14.5 36z" />
    <glyph glyph-name="Ccaron" unicode="&#x10c;" horiz-adv-x="710" 
d="M83 536q41 81 117 125.5t176 44.5q116 0 194.5 -63t98.5 -172h-87q-19 73 -74.5 114t-135.5 41q-72 0 -127 -35t-84.5 -97.5t-29.5 -143.5q0 -80 29.5 -143t84.5 -98t127 -35q81 0 135 40.5t74 114.5h87q-20 -109 -97.5 -172t-194.5 -63q-100 0 -176 44.5t-117 125
t-41 186.5q0 105 41 186zM376 814l87 82h78l-126 -136h-78l-126 136h79z" />
    <glyph glyph-name="ccaron" unicode="&#x10d;" horiz-adv-x="550" 
d="M436 42.5q-59 -48.5 -150 -48.5q-74 0 -130 33t-87 92.5t-31 136.5t31.5 136t88.5 91.5t131 32.5q90 0 148.5 -48t73.5 -132h-83q-12 49 -50 78t-92 29q-73 0 -118.5 -52t-45.5 -135q0 -84 45.5 -136.5t118.5 -52.5q56 0 94 29t49 80h82q-16 -85 -75 -133.5zM289 624
l87 82h78l-126 -136h-78l-126 136h79z" />
    <glyph glyph-name="Dcaron" unicode="&#x10e;" horiz-adv-x="669" 
d="M68 700h207q108 0 187.5 -43.5t122 -122.5t42.5 -184q0 -104 -42.5 -183.5t-122 -123t-187.5 -43.5h-207v700zM275 80q125 0 194 73t69 197q0 125 -68.5 197.5t-194.5 72.5h-120v-540h120zM307 814l87 82h78l-126 -136h-78l-126 136h79z" />
    <glyph glyph-name="dcaron" unicode="&#x10f;" horiz-adv-x="656" 
d="M540 700v-700h-71l-11 82q-64 -88 -175 -88q-71 0 -126.5 31t-87 90t-31.5 140q0 77 31.5 136t87.5 92t126 33q62 0 106 -22.5t69 -61.5v268h82zM378.5 90.5q38.5 23.5 59.5 66t21 96.5q0 55 -21 98.5t-59.5 67.5t-87.5 24q-76 0 -122.5 -52.5t-46.5 -135.5t46.5 -135.5
t122.5 -52.5q49 0 87.5 23.5zM622 700h77l-58 -146h-59z" />
    <glyph glyph-name="Dcroat" unicode="&#x110;" horiz-adv-x="685" 
d="M478.5 656.5q79.5 -43.5 122 -122.5t42.5 -184q0 -104 -42.5 -183.5t-122 -123t-187.5 -43.5h-207v319h-86v74h86v307h207q108 0 187.5 -43.5zM485 153q69 73 69 197q0 125 -68.5 197.5t-194.5 72.5h-120v-227h142v-74h-142v-239h120q125 0 194 73z" />
    <glyph glyph-name="dcroat" unicode="&#x111;" horiz-adv-x="605" 
d="M625 566h-85v-566h-71l-11 82q-64 -88 -175 -88q-71 0 -126.5 31t-87 90t-31.5 140q0 77 31.5 136t87.5 92t126 33q62 0 106 -22.5t69 -61.5v134h-146v70h146v64h82v-64h85v-70zM378.5 90.5q38.5 23.5 59.5 66t21 96.5q0 55 -21 98.5t-59.5 67.5t-87.5 24
q-76 0 -122.5 -52.5t-46.5 -135.5t46.5 -135.5t122.5 -52.5q49 0 87.5 23.5z" />
    <glyph glyph-name="Emacron" unicode="&#x112;" horiz-adv-x="557" 
d="M68 700h446v-80h-359v-224h299v-80h-299v-236h372v-80h-459v700zM147 803v62h275v-62h-275z" />
    <glyph glyph-name="emacron" unicode="&#x113;" horiz-adv-x="560" 
d="M68.5 392q30.5 59 85.5 91.5t126 32.5q70 0 124 -29t85 -84t33 -129q0 -11 -2 -35h-396v-7q2 -75 46 -120t115 -45q55 0 93.5 27.5t51.5 76.5h83q-15 -78 -75 -127.5t-147 -49.5q-76 0 -133 32.5t-88.5 92t-31.5 136.5q0 78 30.5 137zM437 307q-6 65 -48.5 101t-107.5 36
q-58 0 -102 -38t-50 -99h308zM140 613v62h275v-62h-275z" />
    <glyph glyph-name="Ebreve" unicode="&#x114;" horiz-adv-x="557" 
d="M68 700h446v-80h-359v-224h299v-80h-299v-236h372v-80h-459v700zM211 896q0 -33 20 -53.5t52 -20.5t53 20.5t21 53.5h65q-1 -62 -40 -99.5t-100 -37.5q-60 0 -97.5 37t-38.5 100h65z" />
    <glyph glyph-name="ebreve" unicode="&#x115;" horiz-adv-x="560" 
d="M68.5 392q30.5 59 85.5 91.5t126 32.5q70 0 124 -29t85 -84t33 -129q0 -11 -2 -35h-396v-7q2 -75 46 -120t115 -45q55 0 93.5 27.5t51.5 76.5h83q-15 -78 -75 -127.5t-147 -49.5q-76 0 -133 32.5t-88.5 92t-31.5 136.5q0 78 30.5 137zM437 307q-6 65 -48.5 101t-107.5 36
q-58 0 -102 -38t-50 -99h308zM204 706q0 -33 20 -53.5t52 -20.5t53 20.5t21 53.5h65q-1 -62 -40 -99.5t-100 -37.5q-60 0 -97.5 37t-38.5 100h65z" />
    <glyph glyph-name="Edotaccent" unicode="&#x116;" horiz-adv-x="557" 
d="M68 700h446v-80h-359v-224h299v-80h-299v-236h372v-80h-459v700zM246.5 884q14.5 14 37.5 14t37.5 -14t14.5 -36t-14.5 -36.5t-37.5 -14.5t-37.5 14.5t-14.5 36.5t14.5 36z" />
    <glyph glyph-name="edotaccent" unicode="&#x117;" horiz-adv-x="560" 
d="M68.5 392q30.5 59 85.5 91.5t126 32.5q70 0 124 -29t85 -84t33 -129q0 -11 -2 -35h-396v-7q2 -75 46 -120t115 -45q55 0 93.5 27.5t51.5 76.5h83q-15 -78 -75 -127.5t-147 -49.5q-76 0 -133 32.5t-88.5 92t-31.5 136.5q0 78 30.5 137zM437 307q-6 65 -48.5 101t-107.5 36
q-58 0 -102 -38t-50 -99h308zM239.5 694q14.5 14 37.5 14t37.5 -14t14.5 -36t-14.5 -36.5t-37.5 -14.5t-37.5 14.5t-14.5 36.5t14.5 36z" />
    <glyph glyph-name="Eogonek" unicode="&#x118;" horiz-adv-x="557" 
d="M533 -140v-60h-78q-46 0 -73.5 23t-27.5 62q0 33 20 60t57 55h-363v700h446v-80h-359v-224h299v-80h-299v-236h372v-80q-50 -27 -77 -51.5t-27 -51.5q0 -37 46 -37h64z" />
    <glyph glyph-name="eogonek" unicode="&#x119;" horiz-adv-x="560" 
d="M124 239v-7q2 -75 46 -120t115 -45q55 0 93.5 27.5t51.5 76.5h83q-13 -65 -57.5 -111t-110.5 -60q-50 -27 -76.5 -51.5t-26.5 -51.5q0 -37 46 -37h64v-60h-78q-46 0 -73.5 23t-27.5 62q0 31 19 58t54 54q-95 14 -151.5 83.5t-56.5 174.5q0 78 30.5 137t85.5 91.5
t126 32.5q70 0 124 -29t85 -84t33 -129q0 -11 -2 -35h-396zM179 406q-44 -38 -50 -99h308q-6 65 -48.5 101t-107.5 36q-58 0 -102 -38z" />
    <glyph glyph-name="Ecaron" unicode="&#x11a;" horiz-adv-x="557" 
d="M68 700h446v-80h-359v-224h299v-80h-299v-236h372v-80h-459v700zM284 814l87 82h78l-126 -136h-78l-126 136h79z" />
    <glyph glyph-name="ecaron" unicode="&#x11b;" horiz-adv-x="560" 
d="M68.5 392q30.5 59 85.5 91.5t126 32.5q70 0 124 -29t85 -84t33 -129q0 -11 -2 -35h-396v-7q2 -75 46 -120t115 -45q55 0 93.5 27.5t51.5 76.5h83q-15 -78 -75 -127.5t-147 -49.5q-76 0 -133 32.5t-88.5 92t-31.5 136.5q0 78 30.5 137zM437 307q-6 65 -48.5 101t-107.5 36
q-58 0 -102 -38t-50 -99h308zM277 624l87 82h78l-126 -136h-78l-126 136h79z" />
    <glyph glyph-name="Gcircumflex" unicode="&#x11c;" horiz-adv-x="747" 
d="M83 536q41 81 117 125.5t176 44.5q116 0 194.5 -63t98.5 -171h-86q-20 73 -75 113.5t-134 40.5q-72 0 -127.5 -35t-85.5 -98t-30 -143t30 -143t85 -98t126 -35q64 0 114.5 24.5t79 70t28.5 106.5v24h-210v80h295v-379h-72l-9 111q-29 -47 -87 -82t-140 -35q-96 0 -171 45
t-116.5 125.5t-41.5 185.5t41 186zM376 842l-87 -82h-78l126 136h78l126 -136h-79z" />
    <glyph glyph-name="gcircumflex" unicode="&#x11d;" horiz-adv-x="596" 
d="M540 510v-485q0 -231 -253 -231q-99 0 -161.5 45t-72.5 128h84q10 -48 51 -74t105 -26q165 0 165 161v60q-55 -94 -175 -94q-71 0 -126.5 31t-87 90t-31.5 140q0 77 31.5 136t87.5 92t126 33q62 0 106 -24.5t69 -69.5l11 88h71zM378.5 90.5q38.5 23.5 59.5 66t21 96.5
q0 55 -21 98.5t-59.5 67.5t-87.5 24q-76 0 -122.5 -52.5t-46.5 -135.5t46.5 -135.5t122.5 -52.5q49 0 87.5 23.5zM289 652l-87 -82h-78l126 136h78l126 -136h-79z" />
    <glyph glyph-name="Gbreve" unicode="&#x11e;" horiz-adv-x="747" 
d="M83 536q41 81 117 125.5t176 44.5q116 0 194.5 -63t98.5 -171h-86q-20 73 -75 113.5t-134 40.5q-72 0 -127.5 -35t-85.5 -98t-30 -143t30 -143t85 -98t126 -35q64 0 114.5 24.5t79 70t28.5 106.5v24h-210v80h295v-379h-72l-9 111q-29 -47 -87 -82t-140 -35q-96 0 -171 45
t-116.5 125.5t-41.5 185.5t41 186zM303 896q0 -33 20 -53.5t52 -20.5t53 20.5t21 53.5h65q-1 -62 -40 -99.5t-100 -37.5q-60 0 -97.5 37t-38.5 100h65z" />
    <glyph glyph-name="gbreve" unicode="&#x11f;" horiz-adv-x="596" 
d="M540 510v-485q0 -231 -253 -231q-99 0 -161.5 45t-72.5 128h84q10 -48 51 -74t105 -26q165 0 165 161v60q-55 -94 -175 -94q-71 0 -126.5 31t-87 90t-31.5 140q0 77 31.5 136t87.5 92t126 33q62 0 106 -24.5t69 -69.5l11 88h71zM378.5 90.5q38.5 23.5 59.5 66t21 96.5
q0 55 -21 98.5t-59.5 67.5t-87.5 24q-76 0 -122.5 -52.5t-46.5 -135.5t46.5 -135.5t122.5 -52.5q49 0 87.5 23.5zM216 706q0 -33 20 -53.5t52 -20.5t53 20.5t21 53.5h65q-1 -62 -40 -99.5t-100 -37.5q-60 0 -97.5 37t-38.5 100h65z" />
    <glyph glyph-name="Gdotaccent" unicode="&#x120;" horiz-adv-x="747" 
d="M83 536q41 81 117 125.5t176 44.5q116 0 194.5 -63t98.5 -171h-86q-20 73 -75 113.5t-134 40.5q-72 0 -127.5 -35t-85.5 -98t-30 -143t30 -143t85 -98t126 -35q64 0 114.5 24.5t79 70t28.5 106.5v24h-210v80h295v-379h-72l-9 111q-29 -47 -87 -82t-140 -35q-96 0 -171 45
t-116.5 125.5t-41.5 185.5t41 186zM338.5 884q14.5 14 37.5 14t37.5 -14t14.5 -36t-14.5 -36.5t-37.5 -14.5t-37.5 14.5t-14.5 36.5t14.5 36z" />
    <glyph glyph-name="gdotaccent" unicode="&#x121;" horiz-adv-x="596" 
d="M540 510v-485q0 -231 -253 -231q-99 0 -161.5 45t-72.5 128h84q10 -48 51 -74t105 -26q165 0 165 161v60q-55 -94 -175 -94q-71 0 -126.5 31t-87 90t-31.5 140q0 77 31.5 136t87.5 92t126 33q62 0 106 -24.5t69 -69.5l11 88h71zM378.5 90.5q38.5 23.5 59.5 66t21 96.5
q0 55 -21 98.5t-59.5 67.5t-87.5 24q-76 0 -122.5 -52.5t-46.5 -135.5t46.5 -135.5t122.5 -52.5q49 0 87.5 23.5zM251.5 694q14.5 14 37.5 14t37.5 -14t14.5 -36t-14.5 -36.5t-37.5 -14.5t-37.5 14.5t-14.5 36.5t14.5 36z" />
    <glyph glyph-name="Gcommaaccent" unicode="&#x122;" horiz-adv-x="747" 
d="M83 536q41 81 117 125.5t176 44.5q116 0 194.5 -63t98.5 -171h-86q-20 73 -75 113.5t-134 40.5q-72 0 -127.5 -35t-85.5 -98t-30 -143t30 -143t85 -98t126 -35q64 0 114.5 24.5t79 70t28.5 106.5v24h-210v80h295v-379h-72l-9 111q-29 -47 -87 -82t-140 -35q-96 0 -171 45
t-116.5 125.5t-41.5 185.5t41 186zM329 -51h80l-70 -143h-59z" />
    <glyph glyph-name="gcommaaccent" unicode="&#x123;" horiz-adv-x="596" 
d="M540 510v-485q0 -231 -253 -231q-99 0 -161.5 45t-72.5 128h84q10 -48 51 -74t105 -26q165 0 165 161v60q-55 -94 -175 -94q-71 0 -126.5 31t-87 90t-31.5 140q0 77 31.5 136t87.5 92t126 33q62 0 106 -24.5t69 -69.5l11 88h71zM378.5 90.5q38.5 23.5 59.5 66t21 96.5
q0 55 -21 98.5t-59.5 67.5t-87.5 24q-76 0 -122.5 -52.5t-46.5 -135.5t46.5 -135.5t122.5 -52.5q49 0 87.5 23.5zM321 563h-80l66 143h63z" />
    <glyph glyph-name="Hcircumflex" unicode="&#x124;" horiz-adv-x="672" 
d="M68 701h87v-305h362v305h87v-701h-87v316h-362v-316h-87v701zM336 842l-87 -82h-78l126 136h78l126 -136h-79z" />
    <glyph glyph-name="hcircumflex" unicode="&#x125;" horiz-adv-x="562" 
d="M456 460q57 -56 57 -176v-284h-82v279q0 79 -36 120.5t-103 41.5q-71 0 -112.5 -50t-41.5 -136v-255h-82v700h82v-274q25 40 66.5 65t101.5 25q93 0 150 -56zM97 832l-87 -82h-78l126 136h78l126 -136h-79z" />
    <glyph glyph-name="Hbar" unicode="&#x126;" horiz-adv-x="680" 
d="M682 578v-74h-74v-504h-87v306h-362v-306h-87v504h-74v74h74v123h87v-123h362v123h87v-123h74zM521 386v118h-362v-118h362z" />
    <glyph glyph-name="hbar" unicode="&#x127;" horiz-adv-x="571" 
d="M465 460q57 -56 57 -176v-284h-82v279q0 79 -36 120.5t-103 41.5q-71 0 -112.5 -50t-41.5 -136v-255h-82v566h-85v70h85v64h82v-64h146v-70h-146v-140q25 40 66.5 65t101.5 25q93 0 150 -56z" />
    <glyph glyph-name="Itilde" unicode="&#x128;" horiz-adv-x="223" 
d="M68 700h87v-700h-87v700zM29.5 823q-9.5 -14 -9.5 -35h-52v12q0 40 23.5 66t62.5 26q25 0 40.5 -8.5t31.5 -23.5q12 -11 20.5 -16.5t19.5 -5.5q17 0 26 14t9 35h52v-12q0 -40 -23.5 -66t-61.5 -26q-25 0 -40 8t-32 24q-11 11 -19.5 16.5t-20.5 5.5q-17 0 -26.5 -14z" />
    <glyph glyph-name="itilde" unicode="&#x129;" horiz-adv-x="194" 
d="M56 510h82v-510h-82v510zM16.5 633q-9.5 -14 -9.5 -35h-52v12q0 40 23.5 66t62.5 26q25 0 40.5 -8.5t31.5 -23.5q12 -11 20.5 -16.5t19.5 -5.5q17 0 26 14t9 35h52v-12q0 -40 -23.5 -66t-61.5 -26q-25 0 -40 8t-32 24q-11 11 -19.5 16.5t-20.5 5.5q-17 0 -26.5 -14z" />
    <glyph glyph-name="Imacron" unicode="&#x12a;" horiz-adv-x="223" 
d="M68 700h87v-700h-87v700zM-26 803v62h275v-62h-275z" />
    <glyph glyph-name="imacron" unicode="&#x12b;" horiz-adv-x="194" 
d="M56 510h82v-510h-82v510zM-39 613v62h275v-62h-275z" />
    <glyph glyph-name="Ibreve" unicode="&#x12c;" horiz-adv-x="223" 
d="M68 700h87v-700h-87v700zM38 896q0 -33 20 -53.5t52 -20.5t53 20.5t21 53.5h65q-1 -62 -40 -99.5t-100 -37.5q-60 0 -97.5 37t-38.5 100h65z" />
    <glyph glyph-name="ibreve" unicode="&#x12d;" horiz-adv-x="194" 
d="M56 510h82v-510h-82v510zM25 706q0 -33 20 -53.5t52 -20.5t53 20.5t21 53.5h65q-1 -62 -40 -99.5t-100 -37.5q-60 0 -97.5 37t-38.5 100h65z" />
    <glyph glyph-name="Iogonek" unicode="&#x12e;" horiz-adv-x="223" 
d="M161 -140v-60h-78q-46 0 -73.5 23t-27.5 62q0 35 22.5 63.5t63.5 58.5v693h87v-700q-50 -27 -77 -51.5t-27 -51.5q0 -37 46 -37h64z" />
    <glyph glyph-name="iogonek" unicode="&#x12f;" horiz-adv-x="194" 
d="M59 616q-15 15 -15 38t15 38t38 15t38 -15t15 -38t-15 -38t-38 -15t-38 15zM80 -140h64v-60h-78q-46 0 -73.5 23t-27.5 62q0 36 23.5 65.5t67.5 60.5v499h82v-510q-50 -27 -77 -51.5t-27 -51.5q0 -37 46 -37z" />
    <glyph glyph-name="Idotaccent" unicode="&#x130;" horiz-adv-x="223" 
d="M68 700h87v-700h-87v700zM73.5 884q14.5 14 37.5 14t37.5 -14t14.5 -36t-14.5 -36.5t-37.5 -14.5t-37.5 14.5t-14.5 36.5t14.5 36z" />
    <glyph glyph-name="dotlessi" unicode="&#x131;" horiz-adv-x="194" 
d="M56 510h82v-510h-82v510z" />
    <glyph glyph-name="IJ" unicode="&#x132;" horiz-adv-x="616" 
d="M151 258q0 -87 40 -135.5t116 -48.5q79 0 118.5 45t39.5 142v439h87v-437q0 -269 -245 -269q-117 0 -180.5 68t-62.5 196h87zM65 700h87v-307h-87v307z" />
    <glyph glyph-name="ij" unicode="&#x133;" horiz-adv-x="394" 
d="M135 692q15 -15 15 -38t-15 -38t-38 -15t-38 15t-15 38t15 38t38 15t38 -15zM56 510h82v-510h-82v510zM335 692q15 -15 15 -38t-15 -38t-38 -15t-38 15t-15 38t15 38t38 15t38 -15zM200 -125q30 0 43 13t13 43v579h82v-577q0 -68 -31.5 -100.5t-101.5 -32.5h-69v75h64z
" />
    <glyph glyph-name="Jcircumflex" unicode="&#x134;" horiz-adv-x="350" 
d="M282 700v-535q0 -81 -42 -123t-123 -42h-91v82h80q47 0 68 21.5t21 68.5v528h87zM239 842l-87 -82h-78l126 136h78l126 -136h-79z" />
    <glyph glyph-name="jcircumflex" unicode="&#x135;" horiz-adv-x="200" 
d="M6 -125q30 0 43 13t13 43v579h82v-577q0 -68 -31.5 -100.5t-101.5 -32.5h-69v75h64zM103 652l-87 -82h-78l126 136h78l126 -136h-79z" />
    <glyph glyph-name="Kcommaaccent" unicode="&#x136;" horiz-adv-x="638" 
d="M68 700h87v-397l353 397h106l-256 -295l276 -405h-104l-236 339l-139 -157v-182h-87v700zM281 -51h80l-70 -143h-59z" />
    <glyph glyph-name="kcommaaccent" unicode="&#x137;" horiz-adv-x="517" 
d="M56 700h82v-464l259 274h98l-196 -209l210 -301h-99l-170 242l-102 -107v-135h-82v700zM233 -51h80l-70 -143h-59z" />
    <glyph glyph-name="Lacute" unicode="&#x139;" horiz-adv-x="499" 
d="M68 0v700h87v-620h319v-80h-406zM81 761l85 135h96l-117 -135h-64z" />
    <glyph glyph-name="lacute" unicode="&#x13a;" horiz-adv-x="194" 
d="M56 700h82v-700h-82v700zM67 751l85 135h96l-117 -135h-64z" />
    <glyph glyph-name="Lcommaaccent" unicode="&#x13b;" horiz-adv-x="499" 
d="M68 0v700h87v-620h319v-80h-406zM224 -51h80l-70 -143h-59z" />
    <glyph glyph-name="lcommaaccent" unicode="&#x13c;" horiz-adv-x="194" 
d="M56 700h82v-700h-82v700zM55 -51h80l-70 -143h-59z" />
    <glyph glyph-name="Lcaron" unicode="&#x13d;" horiz-adv-x="499" 
d="M68 0v700h87v-620h319v-80h-406zM257 700h77l-58 -146h-59z" />
    <glyph glyph-name="lcaron" unicode="&#x13e;" horiz-adv-x="254" 
d="M56 700h82v-700h-82v700zM220 700h77l-58 -146h-59z" />
    <glyph glyph-name="Ldot" unicode="&#x13f;" horiz-adv-x="499" 
d="M68 0v700h87v-620h319v-80h-406zM321.5 405q14.5 14 37.5 14t37.5 -14t14.5 -36t-14.5 -36.5t-37.5 -14.5t-37.5 14.5t-14.5 36.5t14.5 36z" />
    <glyph glyph-name="ldot" unicode="&#x140;" horiz-adv-x="292" 
d="M56 700h82v-700h-82v700zM206.5 399q14.5 14 37.5 14t37.5 -14t14.5 -36t-14.5 -36.5t-37.5 -14.5t-37.5 14.5t-14.5 36.5t14.5 36z" />
    <glyph glyph-name="Lslash" unicode="&#x141;" horiz-adv-x="515" 
d="M171 80h319v-80h-406v292l-86 -46v78l86 46v330h87v-283l156 83v-78l-156 -83v-259z" />
    <glyph glyph-name="lslash" unicode="&#x142;" horiz-adv-x="282" 
d="M279 486v-77l-97 -47v-362h-82v322l-97 -47v77l97 47v301h82v-261z" />
    <glyph glyph-name="Nacute" unicode="&#x143;" horiz-adv-x="677" 
d="M68 0v700h80l376 -540v540h85v-700h-80l-376 540v-540h-85zM303 761l85 135h96l-117 -135h-64z" />
    <glyph glyph-name="nacute" unicode="&#x144;" horiz-adv-x="561" 
d="M455.5 460q56.5 -56 56.5 -176v-284h-82v279q0 79 -35.5 120.5t-102.5 41.5q-72 0 -113 -50t-41 -136v-255h-82v510h71l11 -69q58 75 168 75q93 0 149.5 -56zM269 571l85 135h96l-117 -135h-64z" />
    <glyph glyph-name="Ncommaaccent" unicode="&#x145;" horiz-adv-x="677" 
d="M68 0v700h80l376 -540v540h85v-700h-80l-376 540v-540h-85zM295 -51h80l-70 -143h-59z" />
    <glyph glyph-name="ncommaaccent" unicode="&#x146;" horiz-adv-x="561" 
d="M455.5 460q56.5 -56 56.5 -176v-284h-82v279q0 79 -35.5 120.5t-102.5 41.5q-72 0 -113 -50t-41 -136v-255h-82v510h71l11 -69q58 75 168 75q93 0 149.5 -56zM243 -51h80l-70 -143h-59z" />
    <glyph glyph-name="Ncaron" unicode="&#x147;" horiz-adv-x="677" 
d="M68 0v700h80l376 -540v540h85v-700h-80l-376 540v-540h-85zM333 814l87 82h78l-126 -136h-78l-126 136h79z" />
    <glyph glyph-name="ncaron" unicode="&#x148;" horiz-adv-x="561" 
d="M455.5 460q56.5 -56 56.5 -176v-284h-82v279q0 79 -35.5 120.5t-102.5 41.5q-72 0 -113 -50t-41 -136v-255h-82v510h71l11 -69q58 75 168 75q93 0 149.5 -56zM299 624l87 82h78l-126 -136h-78l-126 136h79z" />
    <glyph glyph-name="napostrophe" unicode="&#x149;" horiz-adv-x="737" 
d="M150.5 676.5q21.5 -29.5 21.5 -72.5q0 -64 -37.5 -100t-103.5 -38v47q44 1 64 25t20 55q0 9 -1 13q-12 -12 -34 -12q-24 0 -38.5 14t-14.5 40q0 25 17.5 41.5t48.5 16.5q36 0 57.5 -29.5zM631.5 460q56.5 -56 56.5 -176v-284h-82v279q0 79 -35.5 120.5t-102.5 41.5
q-72 0 -113 -50t-41 -136v-255h-82v510h71l11 -69q58 75 168 75q93 0 149.5 -56z" />
    <glyph glyph-name="Eng" unicode="&#x14a;" horiz-adv-x="677" 
d="M609 700v-764q0 -70 -32 -103t-104 -33h-71v78h66q30 0 43 13t13 43v73l-371 533v-540h-85v700h80l376 -540v540h85z" />
    <glyph glyph-name="eng" unicode="&#x14b;" horiz-adv-x="561" 
d="M455.5 460q56.5 -56 56.5 -176v-351q0 -68 -31.5 -100.5t-101.5 -32.5h-74v75h69q30 0 43 13t13 43v348q0 79 -35.5 120.5t-102.5 41.5q-72 0 -113 -50t-41 -136v-255h-82v510h71l11 -69q58 75 168 75q93 0 149.5 -56z" />
    <glyph glyph-name="Omacron" unicode="&#x14c;" horiz-adv-x="752" 
d="M667.5 167q-42.5 -81 -118.5 -127t-173 -46t-173 46t-118.5 127t-42.5 183t42.5 183t118.5 127t173 46t173 -46t118.5 -127t42.5 -183t-42.5 -183zM162 207.5q31 -62.5 86.5 -98t127.5 -35.5t127.5 35.5t86.5 98t31 142.5t-31 142.5t-86.5 98t-127.5 35.5t-127.5 -35.5
t-86.5 -98t-31 -142.5t31 -142.5zM239 803v62h275v-62h-275z" />
    <glyph glyph-name="omacron" unicode="&#x14d;" horiz-adv-x="582" 
d="M159.5 27q-57.5 33 -89.5 92t-32 136t32 136t89.5 92t131.5 33t131.5 -33t89.5 -92t32 -136t-32 -136t-89.5 -92t-131.5 -33t-131.5 33zM379.5 91q38.5 24 59.5 67t21 97t-21 97t-59.5 67t-88.5 24t-88.5 -24t-59.5 -67t-21 -97t21 -97t59.5 -67t88.5 -24t88.5 24z
M154 613v62h275v-62h-275z" />
    <glyph glyph-name="Obreve" unicode="&#x14e;" horiz-adv-x="752" 
d="M667.5 167q-42.5 -81 -118.5 -127t-173 -46t-173 46t-118.5 127t-42.5 183t42.5 183t118.5 127t173 46t173 -46t118.5 -127t42.5 -183t-42.5 -183zM162 207.5q31 -62.5 86.5 -98t127.5 -35.5t127.5 35.5t86.5 98t31 142.5t-31 142.5t-86.5 98t-127.5 35.5t-127.5 -35.5
t-86.5 -98t-31 -142.5t31 -142.5zM303 896q0 -33 20 -53.5t52 -20.5t53 20.5t21 53.5h65q-1 -62 -40 -99.5t-100 -37.5q-60 0 -97.5 37t-38.5 100h65z" />
    <glyph glyph-name="obreve" unicode="&#x14f;" horiz-adv-x="582" 
d="M159.5 27q-57.5 33 -89.5 92t-32 136t32 136t89.5 92t131.5 33t131.5 -33t89.5 -92t32 -136t-32 -136t-89.5 -92t-131.5 -33t-131.5 33zM379.5 91q38.5 24 59.5 67t21 97t-21 97t-59.5 67t-88.5 24t-88.5 -24t-59.5 -67t-21 -97t21 -97t59.5 -67t88.5 -24t88.5 24z
M218 706q0 -33 20 -53.5t52 -20.5t53 20.5t21 53.5h65q-1 -62 -40 -99.5t-100 -37.5q-60 0 -97.5 37t-38.5 100h65z" />
    <glyph glyph-name="Ohungarumlaut" unicode="&#x150;" horiz-adv-x="752" 
d="M667.5 167q-42.5 -81 -118.5 -127t-173 -46t-173 46t-118.5 127t-42.5 183t42.5 183t118.5 127t173 46t173 -46t118.5 -127t42.5 -183t-42.5 -183zM162 207.5q31 -62.5 86.5 -98t127.5 -35.5t127.5 35.5t86.5 98t31 142.5t-31 142.5t-86.5 98t-127.5 35.5t-127.5 -35.5
t-86.5 -98t-31 -142.5t31 -142.5zM248 759l85 137h93l-115 -137h-63zM424 759l85 137h93l-115 -137h-63z" />
    <glyph glyph-name="ohungarumlaut" unicode="&#x151;" horiz-adv-x="582" 
d="M159.5 27q-57.5 33 -89.5 92t-32 136t32 136t89.5 92t131.5 33t131.5 -33t89.5 -92t32 -136t-32 -136t-89.5 -92t-131.5 -33t-131.5 33zM379.5 91q38.5 24 59.5 67t21 97t-21 97t-59.5 67t-88.5 24t-88.5 -24t-59.5 -67t-21 -97t21 -97t59.5 -67t88.5 -24t88.5 24z
M163 569l85 137h93l-115 -137h-63zM339 569l85 137h93l-115 -137h-63z" />
    <glyph glyph-name="OE" unicode="&#x152;" horiz-adv-x="1126" 
d="M1096 80v-80h-459v131q-39 -65 -102.5 -101t-150.5 -36q-100 0 -178 46t-121 127t-43 183t43 183t121 127t178 46q87 0 150.5 -36t102.5 -101v131h446v-80h-359v-224h299v-80h-299v-236h372zM510.5 105.5q55.5 31.5 88.5 88t38 129.5v54q-5 73 -38 129.5t-88.5 88
t-125.5 31.5q-75 0 -133 -35.5t-89.5 -98t-31.5 -142.5t31.5 -142.5t89.5 -98t133 -35.5q70 0 125.5 31.5z" />
    <glyph glyph-name="oe" unicode="&#x153;" horiz-adv-x="973" 
d="M537 239v-7q2 -75 46 -120t115 -45q55 0 93.5 27.5t51.5 76.5h83q-15 -78 -75 -127.5t-147 -49.5q-71 0 -125 29.5t-84 83.5q-32 -53 -85 -83t-119 -30q-74 0 -131.5 33t-89.5 93t-32 137q0 76 32 135t89.5 91.5t131.5 32.5q68 0 122 -29.5t85 -83.5q30 54 80.5 83.5
t114.5 29.5q70 0 124 -29t85 -84t33 -129q0 -11 -2 -35h-396zM592 406q-44 -38 -50 -99h308q-6 65 -48.5 101t-107.5 36q-58 0 -102 -38zM379.5 91q38.5 24 59.5 66t21 96q0 84 -46.5 137t-122.5 53q-50 0 -88.5 -24t-59.5 -66t-21 -96q0 -84 46.5 -137t122.5 -53
q50 0 88.5 24z" />
    <glyph glyph-name="Racute" unicode="&#x154;" horiz-adv-x="611" 
d="M336 700q69 0 122 -26.5t82 -75t29 -113.5q0 -73 -40.5 -126.5t-108.5 -72.5l157 -286h-98l-145 269h-179v-269h-87v700h268zM155 349h174q69 0 110 37t41 99q0 61 -41 98t-109 37h-175v-271zM259 761l85 135h96l-117 -135h-64z" />
    <glyph glyph-name="racute" unicode="&#x155;" horiz-adv-x="334" 
d="M315 510v-80h-41q-73 0 -104.5 -49t-31.5 -121v-260h-82v510h71l11 -77q22 35 57 56t97 21h23zM153 571l85 135h96l-117 -135h-64z" />
    <glyph glyph-name="Rcommaaccent" unicode="&#x156;" horiz-adv-x="611" 
d="M336 700q69 0 122 -26.5t82 -75t29 -113.5q0 -73 -40.5 -126.5t-108.5 -72.5l157 -286h-98l-145 269h-179v-269h-87v700h268zM155 349h174q69 0 110 37t41 99q0 61 -41 98t-109 37h-175v-271zM263 -51h80l-70 -143h-59z" />
    <glyph glyph-name="rcommaaccent" unicode="&#x157;" horiz-adv-x="334" 
d="M315 510v-80h-41q-73 0 -104.5 -49t-31.5 -121v-260h-82v510h71l11 -77q22 35 57 56t97 21h23zM55 -51h80l-70 -143h-59z" />
    <glyph glyph-name="Rcaron" unicode="&#x158;" horiz-adv-x="611" 
d="M336 700q69 0 122 -26.5t82 -75t29 -113.5q0 -73 -40.5 -126.5t-108.5 -72.5l157 -286h-98l-145 269h-179v-269h-87v700h268zM155 349h174q69 0 110 37t41 99q0 61 -41 98t-109 37h-175v-271zM289 814l87 82h78l-126 -136h-78l-126 136h79z" />
    <glyph glyph-name="rcaron" unicode="&#x159;" horiz-adv-x="334" 
d="M315 510v-80h-41q-73 0 -104.5 -49t-31.5 -121v-260h-82v510h71l11 -77q22 35 57 56t97 21h23zM183 624l87 82h78l-126 -136h-78l-126 136h79z" />
    <glyph glyph-name="Sacute" unicode="&#x15a;" horiz-adv-x="607" 
d="M128 229q5 -71 57 -113.5t132 -42.5q72 0 116.5 31.5t44.5 87.5q0 41 -24.5 65t-63 35.5t-104.5 22.5q-105 18 -167 59t-62 133q0 59 30 104.5t84.5 70.5t124.5 25q74 0 131 -27t90 -75.5t37 -111.5h-86q-8 61 -55 98t-117 37t-111 -30.5t-41 -85.5q0 -40 24 -62.5
t62 -34t104 -22.5q105 -18 168 -59.5t63 -133.5q0 -60 -31.5 -107t-88 -73t-129.5 -26q-82 0 -143 29.5t-94.5 83t-36.5 122.5h86zM275 761l85 135h96l-117 -135h-64z" />
    <glyph glyph-name="sacute" unicode="&#x15b;" horiz-adv-x="499" 
d="M120 168q2 -46 40.5 -75t99.5 -29q54 0 87.5 21.5t33.5 56.5q0 30 -16 46t-41.5 22t-72.5 12q-66 8 -108 21t-68 41.5t-26 78.5q0 45 25.5 80t69.5 54.5t99 19.5q90 0 146.5 -42t62.5 -120h-82q-5 40 -39 66t-85 26q-52 0 -84 -21.5t-32 -56.5q0 -26 15 -40t38.5 -19
t71.5 -11q67 -8 110.5 -22t70 -45t26.5 -84q0 -46 -27 -81t-73 -54t-102 -19q-100 0 -160.5 46t-61.5 128h82zM216 571l85 135h96l-117 -135h-64z" />
    <glyph glyph-name="Scircumflex" unicode="&#x15c;" horiz-adv-x="607" 
d="M128 229q5 -71 57 -113.5t132 -42.5q72 0 116.5 31.5t44.5 87.5q0 41 -24.5 65t-63 35.5t-104.5 22.5q-105 18 -167 59t-62 133q0 59 30 104.5t84.5 70.5t124.5 25q74 0 131 -27t90 -75.5t37 -111.5h-86q-8 61 -55 98t-117 37t-111 -30.5t-41 -85.5q0 -40 24 -62.5
t62 -34t104 -22.5q105 -18 168 -59.5t63 -133.5q0 -60 -31.5 -107t-88 -73t-129.5 -26q-82 0 -143 29.5t-94.5 83t-36.5 122.5h86zM305 842l-87 -82h-78l126 136h78l126 -136h-79z" />
    <glyph glyph-name="scircumflex" unicode="&#x15d;" horiz-adv-x="499" 
d="M120 168q2 -46 40.5 -75t99.5 -29q54 0 87.5 21.5t33.5 56.5q0 30 -16 46t-41.5 22t-72.5 12q-66 8 -108 21t-68 41.5t-26 78.5q0 45 25.5 80t69.5 54.5t99 19.5q90 0 146.5 -42t62.5 -120h-82q-5 40 -39 66t-85 26q-52 0 -84 -21.5t-32 -56.5q0 -26 15 -40t38.5 -19
t71.5 -11q67 -8 110.5 -22t70 -45t26.5 -84q0 -46 -27 -81t-73 -54t-102 -19q-100 0 -160.5 46t-61.5 128h82zM246 652l-87 -82h-78l126 136h78l126 -136h-79z" />
    <glyph glyph-name="Scedilla" unicode="&#x15e;" horiz-adv-x="607" 
d="M535.5 96.5q-29.5 -45.5 -82.5 -72.5t-122 -30l-10 -36h11q40 0 65 -20.5t25 -53.5q0 -38 -25.5 -61t-66.5 -23h-90v49h77q42 0 42 33q0 13 -11.5 21t-29.5 8h-50l20 84q-111 7 -176.5 71t-69.5 163h86q5 -71 57 -113.5t132 -42.5q72 0 116.5 31.5t44.5 87.5
q0 41 -24.5 65t-63 35.5t-104.5 22.5q-105 18 -167 59t-62 133q0 59 30 104.5t84.5 70.5t124.5 25q74 0 131 -27t90 -75.5t37 -111.5h-86q-8 61 -55 98t-117 37t-111 -30.5t-41 -85.5q0 -40 24 -62.5t62 -34t104 -22.5q105 -18 168 -59.5t63 -133.5q0 -58 -29.5 -103.5z" />
    <glyph glyph-name="scedilla" unicode="&#x15f;" horiz-adv-x="499" 
d="M411 41.5q-51 -41.5 -129 -46.5l-10 -37h11q40 0 65 -20.5t25 -53.5q0 -38 -25.5 -61t-66.5 -23h-90v49h77q42 0 42 33q0 13 -11.5 21t-29.5 8h-50l20 84q-90 5 -145 50t-56 123h82q2 -46 40.5 -75t99.5 -29q54 0 87.5 21.5t33.5 56.5q0 30 -16 46t-41.5 22t-72.5 12
q-66 8 -108 21t-68 41.5t-26 78.5q0 45 25.5 80t69.5 54.5t99 19.5q90 0 146.5 -42t62.5 -120h-82q-5 40 -39 66t-85 26q-52 0 -84 -21.5t-32 -56.5q0 -26 15 -40t38.5 -19t71.5 -11q67 -8 110.5 -22t70 -45t26.5 -84q0 -65 -51 -106.5z" />
    <glyph glyph-name="Scaron" unicode="&#x160;" horiz-adv-x="607" 
d="M128 229q5 -71 57 -113.5t132 -42.5q72 0 116.5 31.5t44.5 87.5q0 41 -24.5 65t-63 35.5t-104.5 22.5q-105 18 -167 59t-62 133q0 59 30 104.5t84.5 70.5t124.5 25q74 0 131 -27t90 -75.5t37 -111.5h-86q-8 61 -55 98t-117 37t-111 -30.5t-41 -85.5q0 -40 24 -62.5
t62 -34t104 -22.5q105 -18 168 -59.5t63 -133.5q0 -60 -31.5 -107t-88 -73t-129.5 -26q-82 0 -143 29.5t-94.5 83t-36.5 122.5h86zM305 814l87 82h78l-126 -136h-78l-126 136h79z" />
    <glyph glyph-name="scaron" unicode="&#x161;" horiz-adv-x="499" 
d="M120 168q2 -46 40.5 -75t99.5 -29q54 0 87.5 21.5t33.5 56.5q0 30 -16 46t-41.5 22t-72.5 12q-66 8 -108 21t-68 41.5t-26 78.5q0 45 25.5 80t69.5 54.5t99 19.5q90 0 146.5 -42t62.5 -120h-82q-5 40 -39 66t-85 26q-52 0 -84 -21.5t-32 -56.5q0 -26 15 -40t38.5 -19
t71.5 -11q67 -8 110.5 -22t70 -45t26.5 -84q0 -46 -27 -81t-73 -54t-102 -19q-100 0 -160.5 46t-61.5 128h82zM246 624l87 82h78l-126 -136h-78l-126 136h79z" />
    <glyph glyph-name="uni0162" unicode="&#x162;" horiz-adv-x="591" 
d="M25 700h541v-80h-227v-620h-87v620h-227v80zM254 -51h80l-70 -143h-59z" />
    <glyph glyph-name="uni0163" unicode="&#x163;" horiz-adv-x="319" 
d="M90 435h-92v75h92v143h82v-143h129v-75h-129v-301q0 -32 12.5 -45.5t43.5 -13.5h89v-75h-94q-72 0 -102.5 32t-30.5 101v302zM160 -51h80l-70 -143h-59z" />
    <glyph glyph-name="Tcaron" unicode="&#x164;" horiz-adv-x="591" 
d="M25 700h541v-80h-227v-620h-87v620h-227v80zM298 814l87 82h78l-126 -136h-78l-126 136h79z" />
    <glyph glyph-name="tcaron" unicode="&#x165;" horiz-adv-x="319" 
d="M90 435h-92v75h92v143h82v-143h129v-75h-129v-301q0 -32 12.5 -45.5t43.5 -13.5h89v-75h-94q-72 0 -102.5 32t-30.5 101v302zM261 713h77l-58 -146h-59z" />
    <glyph glyph-name="Tbar" unicode="&#x166;" horiz-adv-x="591" 
d="M566 620h-227v-244h118v-74h-118v-302h-87v302h-118v74h118v244h-227v80h541v-80z" />
    <glyph glyph-name="tbar" unicode="&#x167;" horiz-adv-x="342" 
d="M321 75v-75h-94q-72 0 -102.5 32t-30.5 101v112h-92v70h92v120h-92v75h92v143h82v-143h129v-75h-129v-120h129v-70h-129v-111q0 -32 12.5 -45.5t43.5 -13.5h89z" />
    <glyph glyph-name="Utilde" unicode="&#x168;" horiz-adv-x="662" 
d="M151 700v-406q0 -220 179 -220q181 0 181 220v406h87v-401q0 -150 -68.5 -227.5t-199.5 -77.5t-198.5 77.5t-67.5 227.5v401h87zM249.5 823q-9.5 -14 -9.5 -35h-52v12q0 40 23.5 66t62.5 26q25 0 40.5 -8.5t31.5 -23.5q12 -11 20.5 -16.5t19.5 -5.5q17 0 26 14t9 35h52
v-12q0 -40 -23.5 -66t-61.5 -26q-25 0 -40 8t-32 24q-11 11 -19.5 16.5t-20.5 5.5q-17 0 -26.5 -14z" />
    <glyph glyph-name="utilde" unicode="&#x169;" horiz-adv-x="551" 
d="M495 510v-510h-71l-11 68q-58 -74 -163 -74q-91 0 -146 56t-55 176v284h82v-279q0 -79 34.5 -120.5t98.5 -41.5q70 0 109.5 50t39.5 136v255h82zM190.5 633q-9.5 -14 -9.5 -35h-52v12q0 40 23.5 66t62.5 26q25 0 40.5 -8.5t31.5 -23.5q12 -11 20.5 -16.5t19.5 -5.5
q17 0 26 14t9 35h52v-12q0 -40 -23.5 -66t-61.5 -26q-25 0 -40 8t-32 24q-11 11 -19.5 16.5t-20.5 5.5q-17 0 -26.5 -14z" />
    <glyph glyph-name="Umacron" unicode="&#x16a;" horiz-adv-x="662" 
d="M151 700v-406q0 -220 179 -220q181 0 181 220v406h87v-401q0 -150 -68.5 -227.5t-199.5 -77.5t-198.5 77.5t-67.5 227.5v401h87zM194 803v62h275v-62h-275z" />
    <glyph glyph-name="umacron" unicode="&#x16b;" horiz-adv-x="551" 
d="M495 510v-510h-71l-11 68q-58 -74 -163 -74q-91 0 -146 56t-55 176v284h82v-279q0 -79 34.5 -120.5t98.5 -41.5q70 0 109.5 50t39.5 136v255h82zM135 613v62h275v-62h-275z" />
    <glyph glyph-name="Ubreve" unicode="&#x16c;" horiz-adv-x="662" 
d="M151 700v-406q0 -220 179 -220q181 0 181 220v406h87v-401q0 -150 -68.5 -227.5t-199.5 -77.5t-198.5 77.5t-67.5 227.5v401h87zM258 896q0 -33 20 -53.5t52 -20.5t53 20.5t21 53.5h65q-1 -62 -40 -99.5t-100 -37.5q-60 0 -97.5 37t-38.5 100h65z" />
    <glyph glyph-name="ubreve" unicode="&#x16d;" horiz-adv-x="551" 
d="M495 510v-510h-71l-11 68q-58 -74 -163 -74q-91 0 -146 56t-55 176v284h82v-279q0 -79 34.5 -120.5t98.5 -41.5q70 0 109.5 50t39.5 136v255h82zM199 706q0 -33 20 -53.5t52 -20.5t53 20.5t21 53.5h65q-1 -62 -40 -99.5t-100 -37.5q-60 0 -97.5 37t-38.5 100h65z" />
    <glyph glyph-name="Uring" unicode="&#x16e;" horiz-adv-x="662" 
d="M151 700v-406q0 -220 179 -220q181 0 181 220v406h87v-401q0 -150 -68.5 -227.5t-199.5 -77.5t-198.5 77.5t-67.5 227.5v401h87zM248.5 857.5q33.5 32.5 82.5 32.5t82.5 -32.5t33.5 -78.5q0 -47 -33.5 -79.5t-82.5 -32.5t-82.5 32.5t-33.5 79.5q0 46 33.5 78.5z
M375.5 825q-18.5 18 -44.5 18q-27 0 -45 -18t-18 -46t18 -46.5t45 -18.5t45 18.5t18 46.5t-18.5 46z" />
    <glyph glyph-name="uring" unicode="&#x16f;" horiz-adv-x="551" 
d="M495 510v-510h-71l-11 68q-58 -74 -163 -74q-91 0 -146 56t-55 176v284h82v-279q0 -79 34.5 -120.5t98.5 -41.5q70 0 109.5 50t39.5 136v255h82zM189.5 747.5q33.5 32.5 82.5 32.5t82.5 -32.5t33.5 -78.5q0 -47 -33.5 -79.5t-82.5 -32.5t-82.5 32.5t-33.5 79.5
q0 46 33.5 78.5zM316.5 715q-18.5 18 -44.5 18q-27 0 -45 -18t-18 -46t18 -46.5t45 -18.5t45 18.5t18 46.5t-18.5 46z" />
    <glyph glyph-name="Uhungarumlaut" unicode="&#x170;" horiz-adv-x="662" 
d="M151 700v-406q0 -220 179 -220q181 0 181 220v406h87v-401q0 -150 -68.5 -227.5t-199.5 -77.5t-198.5 77.5t-67.5 227.5v401h87zM203 759l85 137h93l-115 -137h-63zM379 759l85 137h93l-115 -137h-63z" />
    <glyph glyph-name="uhungarumlaut" unicode="&#x171;" horiz-adv-x="551" 
d="M495 510v-510h-71l-11 68q-58 -74 -163 -74q-91 0 -146 56t-55 176v284h82v-279q0 -79 34.5 -120.5t98.5 -41.5q70 0 109.5 50t39.5 136v255h82zM144 569l85 137h93l-115 -137h-63zM320 569l85 137h93l-115 -137h-63z" />
    <glyph glyph-name="Uogonek" unicode="&#x172;" horiz-adv-x="662" 
d="M598 700v-401q0 -131 -53 -207t-154 -93q-49 -27 -75.5 -51.5t-26.5 -50.5q0 -37 46 -37h64v-60h-78q-46 0 -73.5 23t-27.5 62q0 31 18.5 57.5t52.5 53.5q-112 11 -169.5 87.5t-57.5 215.5v401h87v-406q0 -220 179 -220q181 0 181 220v406h87z" />
    <glyph glyph-name="uogonek" unicode="&#x173;" horiz-adv-x="551" 
d="M501 -140v-60h-78q-46 0 -73.5 23t-27.5 62q0 38 25.5 68t73.5 63l-8 52q-58 -74 -163 -74q-91 0 -146 56t-55 176v284h82v-279q0 -79 34.5 -120.5t98.5 -41.5q70 0 109.5 50t39.5 136v255h82v-510q-50 -27 -77 -51.5t-27 -51.5q0 -37 46 -37h64z" />
    <glyph glyph-name="Wcircumflex" unicode="&#x174;" horiz-adv-x="992" 
d="M28 700h91l164 -588l172 588h88l166 -588l165 588h90l-205 -700h-104l-160 555l-159 -555h-104zM497 842l-87 -82h-78l126 136h78l126 -136h-79z" />
    <glyph glyph-name="wcircumflex" unicode="&#x175;" horiz-adv-x="782" 
d="M8 510h86l127 -415l134 415h76l127 -415l133 415h83l-170 -510h-90l-123 379l-128 -379l-90 -1zM393 652l-87 -82h-78l126 136h78l126 -136h-79z" />
    <glyph glyph-name="Ycircumflex" unicode="&#x176;" horiz-adv-x="633" 
d="M9 701h102l206 -348l209 348h98l-264 -442v-259h-87v259zM317 842l-87 -82h-78l126 136h78l126 -136h-79z" />
    <glyph glyph-name="ycircumflex" unicode="&#x177;" horiz-adv-x="493" 
d="M92 510l157 -416l152 416h87l-235 -596q-18 -46 -32 -69t-35 -34t-56 -11h-98v75h73q24 0 36 5t19.5 16.5t18.5 38.5l26 61l-200 514h87zM245 652l-87 -82h-78l126 136h78l126 -136h-79z" />
    <glyph glyph-name="Ydieresis" unicode="&#x178;" horiz-adv-x="633" 
d="M9 701h102l206 -348l209 348h98l-264 -442v-259h-87v259zM188.5 868.5q14.5 14.5 37.5 14.5t38 -14.5t15 -37.5q0 -22 -15 -36.5t-38 -14.5q-22 0 -37 14.5t-15 36.5q0 23 14.5 37.5zM370.5 868q15.5 15 37.5 15t37 -14.5t15 -37.5q0 -22 -15 -36.5t-37 -14.5t-37.5 14.5
t-15.5 36.5t15.5 37z" />
    <glyph glyph-name="Zacute" unicode="&#x179;" horiz-adv-x="608" 
d="M43 700h522v-63l-418 -557h431v-80h-548v63l418 557h-405v80zM279 761l85 135h96l-117 -135h-64z" />
    <glyph glyph-name="zacute" unicode="&#x17a;" horiz-adv-x="476" 
d="M35 510h406v-62l-310 -373h323v-75h-432v62l309 373h-296v75zM210 571l85 135h96l-117 -135h-64z" />
    <glyph glyph-name="Zdotaccent" unicode="&#x17b;" horiz-adv-x="608" 
d="M43 700h522v-63l-418 -557h431v-80h-548v63l418 557h-405v80zM271.5 884q14.5 14 37.5 14t37.5 -14t14.5 -36t-14.5 -36.5t-37.5 -14.5t-37.5 14.5t-14.5 36.5t14.5 36z" />
    <glyph glyph-name="zdotaccent" unicode="&#x17c;" horiz-adv-x="476" 
d="M35 510h406v-62l-310 -373h323v-75h-432v62l309 373h-296v75zM202.5 694q14.5 14 37.5 14t37.5 -14t14.5 -36t-14.5 -36.5t-37.5 -14.5t-37.5 14.5t-14.5 36.5t14.5 36z" />
    <glyph glyph-name="Zcaron" unicode="&#x17d;" horiz-adv-x="608" 
d="M43 700h522v-63l-418 -557h431v-80h-548v63l418 557h-405v80zM309 814l87 82h78l-126 -136h-78l-126 136h79z" />
    <glyph glyph-name="zcaron" unicode="&#x17e;" horiz-adv-x="476" 
d="M35 510h406v-62l-310 -373h323v-75h-432v62l309 373h-296v75zM240 624l87 82h78l-126 -136h-78l-126 136h79z" />
    <glyph glyph-name="florin" unicode="&#x192;" horiz-adv-x="483" 
d="M324.5 609.5q-16.5 -15.5 -19.5 -49.5l-16 -187h121v-75h-128l-24 -285q-11 -119 -138 -119h-99v75h87q34 0 50.5 15.5t19.5 49.5l23 264h-116v75h122l18 208q11 119 137 119h100v-75h-87q-34 0 -50.5 -15.5z" />
    <glyph glyph-name="AEacute" unicode="&#x1fc;" horiz-adv-x="958" 
d="M836 896l-117 -135h-64l85 135h96zM556 80h372v-80h-459v177h-266l-111 -177h-91l424 700h490v-80h-359v-224h299v-80h-299v-236zM243 253h226v373z" />
    <glyph glyph-name="aeacute" unicode="&#x1fd;" horiz-adv-x="903" 
d="M604 700l-117 -135h-64l85 135h96zM467 239v-7q2 -75 46 -120t115 -45q55 0 93.5 27.5t51.5 76.5h83q-15 -78 -75 -127.5t-147 -49.5q-67 0 -118.5 29t-82.5 82q-29 -51 -81.5 -81t-121.5 -30q-87 0 -140 40t-53 109q0 77 52.5 118t152.5 41h150v35q0 50 -33.5 78
t-93.5 28q-53 0 -87.5 -23.5t-42.5 -62.5h-82q9 75 66.5 117t149.5 42q64 0 108.5 -23t66.5 -67q30 43 76 66.5t103 23.5q70 0 124 -29t85 -84t33 -129q0 -11 -2 -35h-396zM522 406q-44 -38 -50 -99h308q-6 65 -48.5 101t-107.5 36q-58 0 -102 -38zM392 233h-158
q-114 0 -114 -85q0 -38 30 -61t81 -23q75 0 118 39.5t43 104.5v25z" />
    <glyph glyph-name="Scommaaccent" unicode="&#x218;" horiz-adv-x="607" 
d="M128 229q5 -71 57 -113.5t132 -42.5q72 0 116.5 31.5t44.5 87.5q0 41 -24.5 65t-63 35.5t-104.5 22.5q-105 18 -167 59t-62 133q0 59 30 104.5t84.5 70.5t124.5 25q74 0 131 -27t90 -75.5t37 -111.5h-86q-8 61 -55 98t-117 37t-111 -30.5t-41 -85.5q0 -40 24 -62.5
t62 -34t104 -22.5q105 -18 168 -59.5t63 -133.5q0 -60 -31.5 -107t-88 -73t-129.5 -26q-82 0 -143 29.5t-94.5 83t-36.5 122.5h86zM267 -51h80l-70 -143h-59z" />
    <glyph glyph-name="scommaaccent" unicode="&#x219;" horiz-adv-x="499" 
d="M120 168q2 -46 40.5 -75t99.5 -29q54 0 87.5 21.5t33.5 56.5q0 30 -16 46t-41.5 22t-72.5 12q-66 8 -108 21t-68 41.5t-26 78.5q0 45 25.5 80t69.5 54.5t99 19.5q90 0 146.5 -42t62.5 -120h-82q-5 40 -39 66t-85 26q-52 0 -84 -21.5t-32 -56.5q0 -26 15 -40t38.5 -19
t71.5 -11q67 -8 110.5 -22t70 -45t26.5 -84q0 -46 -27 -81t-73 -54t-102 -19q-100 0 -160.5 46t-61.5 128h82zM218 -51h80l-70 -143h-59z" />
    <glyph glyph-name="uni021A" unicode="&#x21a;" horiz-adv-x="591" 
d="M25 700h541v-80h-227v-620h-87v620h-227v80zM254 -51h80l-70 -143h-59z" />
    <glyph glyph-name="uni021B" unicode="&#x21b;" horiz-adv-x="319" 
d="M90 435h-92v75h92v143h82v-143h129v-75h-129v-301q0 -32 12.5 -45.5t43.5 -13.5h89v-75h-94q-72 0 -102.5 32t-30.5 101v302zM160 -51h80l-70 -143h-59z" />
    <glyph glyph-name="uni0237" unicode="&#x237;" horiz-adv-x="200" 
d="M6 -125q30 0 43 13t13 43v579h82v-577q0 -68 -31.5 -100.5t-101.5 -32.5h-69v75h64z" />
    <glyph glyph-name="uni02BC" unicode="&#x2bc;" horiz-adv-x="338" 
d="M151 700h77l-58 -146h-59z" />
    <glyph glyph-name="circumflex" unicode="&#x2c6;" horiz-adv-x="400" 
d="M200 646l-87 -82h-78l126 136h78l126 -136h-79z" />
    <glyph glyph-name="caron" unicode="&#x2c7;" horiz-adv-x="400" 
d="M200 618l87 82h78l-126 -136h-78l-126 136h79z" />
    <glyph glyph-name="breve" unicode="&#x2d8;" horiz-adv-x="400" 
d="M127 700q0 -33 20 -53.5t52 -20.5t53 20.5t21 53.5h65q-1 -62 -40 -99.5t-100 -37.5q-60 0 -97.5 37t-38.5 100h65z" />
    <glyph glyph-name="dotaccent" unicode="&#x2d9;" horiz-adv-x="400" 
d="M162.5 688q14.5 14 37.5 14t37.5 -14t14.5 -36t-14.5 -36.5t-37.5 -14.5t-37.5 14.5t-14.5 36.5t14.5 36z" />
    <glyph glyph-name="ring" unicode="&#x2da;" horiz-adv-x="400" 
d="M117.5 741.5q33.5 32.5 82.5 32.5t82.5 -32.5t33.5 -78.5q0 -47 -33.5 -79.5t-82.5 -32.5t-82.5 32.5t-33.5 79.5q0 46 33.5 78.5zM245 709q-18 18 -45 18q-26 0 -44.5 -18t-18.5 -46t18 -46.5t45 -18.5t45 18.5t18 46.5t-18 46z" />
    <glyph glyph-name="ogonek" unicode="&#x2db;" horiz-adv-x="400" 
d="M53.5 -46q26.5 31 76.5 65l70 -19q-50 -27 -77 -51.5t-27 -51.5q0 -37 46 -37h64v-60h-78q-46 0 -73.5 23t-27.5 62q0 38 26.5 69z" />
    <glyph glyph-name="tilde" unicode="&#x2dc;" horiz-adv-x="400" 
d="M118.5 627q-9.5 -14 -9.5 -35h-52v12q0 40 23.5 66t62.5 26q25 0 40.5 -8.5t31.5 -23.5q12 -11 20.5 -16.5t19.5 -5.5q17 0 26 14t9 35h52v-12q0 -40 -23.5 -66t-61.5 -26q-25 0 -40 8t-32 24q-11 11 -19.5 16.5t-20.5 5.5q-17 0 -26.5 -14z" />
    <glyph glyph-name="hungarumlaut" unicode="&#x2dd;" horiz-adv-x="404" 
d="M72 563l85 137h93l-115 -137h-63zM248 563l85 137h93l-115 -137h-63z" />
    <glyph glyph-name="gravecomb" unicode="&#x300;" horiz-adv-x="0" 
d="M-348 700h96l83 -136h-65z" />
    <glyph glyph-name="acutecomb" unicode="&#x301;" horiz-adv-x="0" 
d="M-230 565l85 135h96l-117 -135h-64z" />
    <glyph glyph-name="uni0302" unicode="&#x302;" horiz-adv-x="0" 
d="M-200 646l-87 -82h-78l126 136h78l126 -136h-79z" />
    <glyph glyph-name="tildecomb" unicode="&#x303;" horiz-adv-x="0" 
d="M-281.5 627q-9.5 -14 -9.5 -35h-52v12q0 40 23.5 66t62.5 26q25 0 40.5 -8.5t31.5 -23.5q12 -11 20.5 -16.5t19.5 -5.5q17 0 26 14t9 35h52v-12q0 -40 -23.5 -66t-61.5 -26q-25 0 -40 8t-32 24q-11 11 -19.5 16.5t-20.5 5.5q-17 0 -26.5 -14z" />
    <glyph glyph-name="uni0304" unicode="&#x304;" horiz-adv-x="0" 
d="M-337 607v62h275v-62h-275z" />
    <glyph glyph-name="uni0306" unicode="&#x306;" horiz-adv-x="0" 
d="M-273 700q0 -33 20 -53.5t52 -20.5t53 20.5t21 53.5h65q-1 -62 -40 -99.5t-100 -37.5q-60 0 -97.5 37t-38.5 100h65z" />
    <glyph glyph-name="uni0307" unicode="&#x307;" horiz-adv-x="0" 
d="M-237.5 688q14.5 14 37.5 14t37.5 -14t14.5 -36t-14.5 -36.5t-37.5 -14.5t-37.5 14.5t-14.5 36.5t14.5 36z" />
    <glyph glyph-name="uni0308" unicode="&#x308;" horiz-adv-x="0" 
d="M-328.5 672.5q14.5 14.5 37.5 14.5t38 -14.5t15 -37.5q0 -22 -15 -36.5t-38 -14.5q-22 0 -37 14.5t-15 36.5q0 23 14.5 37.5zM-146.5 672q15.5 15 37.5 15t37 -14.5t15 -37.5q0 -22 -15 -36.5t-37 -14.5t-37.5 14.5t-15.5 36.5t15.5 37z" />
    <glyph glyph-name="uni030A" unicode="&#x30a;" horiz-adv-x="0" 
d="M-282.5 741.5q33.5 32.5 82.5 32.5t82.5 -32.5t33.5 -78.5q0 -47 -33.5 -79.5t-82.5 -32.5t-82.5 32.5t-33.5 79.5q0 46 33.5 78.5zM-155.5 709q-18.5 18 -44.5 18q-27 0 -45 -18t-18 -46t18 -46.5t45 -18.5t45 18.5t18 46.5t-18.5 46z" />
    <glyph glyph-name="uni030B" unicode="&#x30b;" horiz-adv-x="0" 
d="M-328 563l85 137h93l-115 -137h-63zM-152 563l85 137h93l-115 -137h-63z" />
    <glyph glyph-name="uni030C" unicode="&#x30c;" horiz-adv-x="0" 
d="M-200 618l87 82h78l-126 -136h-78l-126 136h79z" />
    <glyph glyph-name="uni0312" unicode="&#x312;" horiz-adv-x="0" 
d="M-168 557h-80l66 143h63z" />
    <glyph glyph-name="uni0326" unicode="&#x326;" horiz-adv-x="0" 
d="M-242 -51h80l-70 -143h-59z" />
    <glyph glyph-name="uni0327" unicode="&#x327;" horiz-adv-x="0" 
d="M-172 18l-16 -60h11q40 0 65 -20.5t25 -53.5q0 -38 -25.5 -61t-66.5 -23h-90v49h77q42 0 42 33q0 13 -11.5 21t-29.5 8h-50l26 107h43z" />
    <glyph glyph-name="uni0328" unicode="&#x328;" horiz-adv-x="0" 
d="M-346.5 -46q26.5 31 76.5 65l70 -19q-50 -27 -77 -51.5t-27 -51.5q0 -37 46 -37h64v-60h-78q-46 0 -73.5 23t-27.5 62q0 38 26.5 69z" />
    <glyph glyph-name="pi" unicode="&#x3c0;" horiz-adv-x="609" 
d="M593 509v-75h-82v-434h-82v434h-250v-434h-82v434h-81v75h577z" />
    <glyph glyph-name="uni0E3F" unicode="&#xe3f;" horiz-adv-x="638" 
d="M592 193q0 -90 -65.5 -141.5t-188.5 -51.5h-11v-99h-58v99h-201v700h201v102h58v-102h4q111 0 171.5 -48t60.5 -133q0 -62 -32 -102.5t-93 -56.5q154 -29 154 -167zM155 621v-225h114v225h-114zM327 621v-225h8q67 0 104 30t37 83t-36.5 82.5t-104.5 29.5h-8zM155 79h114
v239h-114v-239zM460.5 110q42.5 31 42.5 86q0 59 -43 90.5t-122 31.5h-11v-239h11q80 0 122.5 31z" />
    <glyph glyph-name="Wgrave" unicode="&#x1e80;" horiz-adv-x="992" 
d="M28 700h91l164 -588l172 588h88l166 -588l165 588h90l-205 -700h-104l-160 555l-159 -555h-104zM349 896h96l83 -136h-65z" />
    <glyph glyph-name="wgrave" unicode="&#x1e81;" horiz-adv-x="782" 
d="M8 510h86l127 -415l134 415h76l127 -415l133 415h83l-170 -510h-90l-123 379l-128 -379l-90 -1zM245 706h96l83 -136h-65z" />
    <glyph glyph-name="Wacute" unicode="&#x1e82;" horiz-adv-x="992" 
d="M28 700h91l164 -588l172 588h88l166 -588l165 588h90l-205 -700h-104l-160 555l-159 -555h-104zM467 761l85 135h96l-117 -135h-64z" />
    <glyph glyph-name="wacute" unicode="&#x1e83;" horiz-adv-x="782" 
d="M8 510h86l127 -415l134 415h76l127 -415l133 415h83l-170 -510h-90l-123 379l-128 -379l-90 -1zM363 571l85 135h96l-117 -135h-64z" />
    <glyph glyph-name="Wdieresis" unicode="&#x1e84;" horiz-adv-x="992" 
d="M28 700h91l164 -588l172 588h88l166 -588l165 588h90l-205 -700h-104l-160 555l-159 -555h-104zM368.5 868.5q14.5 14.5 37.5 14.5t38 -14.5t15 -37.5q0 -22 -15 -36.5t-38 -14.5q-22 0 -37 14.5t-15 36.5q0 23 14.5 37.5zM550.5 868q15.5 15 37.5 15t37 -14.5t15 -37.5
q0 -22 -15 -36.5t-37 -14.5t-37.5 14.5t-15.5 36.5t15.5 37z" />
    <glyph glyph-name="wdieresis" unicode="&#x1e85;" horiz-adv-x="782" 
d="M8 510h86l127 -415l134 415h76l127 -415l133 415h83l-170 -510h-90l-123 379l-128 -379l-90 -1zM264.5 678.5q14.5 14.5 37.5 14.5t38 -14.5t15 -37.5q0 -22 -15 -36.5t-38 -14.5q-22 0 -37 14.5t-15 36.5q0 23 14.5 37.5zM446.5 678q15.5 15 37.5 15t37 -14.5t15 -37.5
q0 -22 -15 -36.5t-37 -14.5t-37.5 14.5t-15.5 36.5t15.5 37z" />
    <glyph glyph-name="Ygrave" unicode="&#x1ef2;" horiz-adv-x="633" 
d="M9 701h102l206 -348l209 348h98l-264 -442v-259h-87v259zM169 896h96l83 -136h-65z" />
    <glyph glyph-name="ygrave" unicode="&#x1ef3;" horiz-adv-x="493" 
d="M92 510l157 -416l152 416h87l-235 -596q-18 -46 -32 -69t-35 -34t-56 -11h-98v75h73q24 0 36 5t19.5 16.5t18.5 38.5l26 61l-200 514h87zM97 706h96l83 -136h-65z" />
    <glyph glyph-name="endash" unicode="&#x2013;" horiz-adv-x="589" 
d="M52 250v68h485v-68h-485z" />
    <glyph glyph-name="emdash" unicode="&#x2014;" horiz-adv-x="921" 
d="M52 319h817v-68h-817v68z" />
    <glyph glyph-name="quoteleft" unicode="&#x2018;" horiz-adv-x="206" 
d="M55.5 495.5q-21.5 29.5 -21.5 72.5q0 64 37.5 100t103.5 38v-47q-44 -1 -64 -25t-20 -55q0 -9 1 -13q12 12 34 12q24 0 38.5 -14t14.5 -40q0 -25 -17.5 -41.5t-48.5 -16.5q-36 0 -57.5 29.5z" />
    <glyph glyph-name="quoteright" unicode="&#x2019;" horiz-adv-x="206" 
d="M150.5 676.5q21.5 -29.5 21.5 -72.5q0 -64 -37.5 -100t-103.5 -38v47q44 1 64 25t20 55q0 9 -1 13q-12 -12 -34 -12q-24 0 -38.5 14t-14.5 40q0 25 17.5 41.5t48.5 16.5q36 0 57.5 -29.5z" />
    <glyph glyph-name="quotesinglbase" unicode="&#x201a;" horiz-adv-x="206" 
d="M150.5 75.5q21.5 -29.5 21.5 -72.5q0 -64 -37.5 -100t-103.5 -38v47q44 1 64 25t20 55q0 9 -1 13q-12 -12 -34 -12q-23 0 -38 14t-15 40q0 25 17.5 41.5t48.5 16.5q36 0 57.5 -29.5z" />
    <glyph glyph-name="quotedblleft" unicode="&#x201c;" horiz-adv-x="379" 
d="M55.5 495.5q-21.5 29.5 -21.5 72.5q0 64 37.5 100t103.5 38v-47q-44 -1 -64 -25t-20 -55q0 -9 1 -13q12 12 34 12q24 0 38.5 -14t14.5 -40q0 -25 -17.5 -41.5t-48.5 -16.5q-36 0 -57.5 29.5zM228.5 495.5q-21.5 29.5 -21.5 72.5q0 64 37.5 100t103.5 38v-47
q-44 -1 -64 -25t-20 -55q0 -9 1 -13q12 12 34 12q24 0 38.5 -14t14.5 -40q0 -25 -17.5 -41.5t-48.5 -16.5q-36 0 -57.5 29.5z" />
    <glyph glyph-name="quotedblright" unicode="&#x201d;" horiz-adv-x="379" 
d="M150.5 676.5q21.5 -29.5 21.5 -72.5q0 -64 -37.5 -100t-103.5 -38v47q44 1 64 25t20 55q0 9 -1 13q-12 -12 -34 -12q-24 0 -38.5 14t-14.5 40q0 25 17.5 41.5t48.5 16.5q36 0 57.5 -29.5zM323.5 676.5q21.5 -29.5 21.5 -72.5q0 -64 -37.5 -100t-103.5 -38v47q44 1 64 25
t20 55q0 9 -1 13q-12 -12 -34 -12q-24 0 -38.5 14t-14.5 40q0 25 17.5 41.5t48.5 16.5q36 0 57.5 -29.5z" />
    <glyph glyph-name="quotedblbase" unicode="&#x201e;" horiz-adv-x="379" 
d="M150.5 75.5q21.5 -29.5 21.5 -72.5q0 -64 -37.5 -100t-103.5 -38v47q44 1 64 25t20 55q0 9 -1 13q-12 -12 -34 -12q-23 0 -38 14t-15 40q0 25 17.5 41.5t48.5 16.5q36 0 57.5 -29.5zM323.5 75.5q21.5 -29.5 21.5 -72.5q0 -64 -37.5 -100t-103.5 -38v47q44 1 64 25t20 55
q0 9 -1 13q-12 -12 -34 -12q-23 0 -38 14t-15 40q0 25 17.5 41.5t48.5 16.5q36 0 57.5 -29.5z" />
    <glyph glyph-name="dagger" unicode="&#x2020;" horiz-adv-x="517" 
d="M483 489v-70h-188v-419h-73v419h-188v70h188v211h73v-211h188z" />
    <glyph glyph-name="daggerdbl" unicode="&#x2021;" horiz-adv-x="544" 
d="M501 455h-192v-210h192v-70h-192v-175h-74v175h-192v70h192v210h-192v70h192v175h74v-175h192v-70z" />
    <glyph glyph-name="bullet" unicode="&#x2022;" horiz-adv-x="413" 
d="M105 440.5q39 36.5 101 36.5t101.5 -36.5t39.5 -97.5t-39.5 -97.5t-101.5 -36.5t-101 36.5t-39 97.5t39 97.5z" />
    <glyph glyph-name="ellipsis" unicode="&#x2026;" horiz-adv-x="590" 
d="M62 90.5q16 15.5 41 15.5t41 -15.5t16 -40.5t-16 -40.5t-41 -15.5t-41 15.5t-16 40.5t16 40.5zM254 90.5q16 15.5 41 15.5t41 -15.5t16 -40.5t-16 -40.5t-41 -15.5t-41 15.5t-16 40.5t16 40.5zM446 90.5q16 15.5 41 15.5t41 -15.5t16 -40.5t-16 -40.5t-41 -15.5t-41 15.5
t-16 40.5t16 40.5z" />
    <glyph glyph-name="perthousand" unicode="&#x2030;" horiz-adv-x="1294" 
d="M77 623.5q23 38.5 63 60.5t90 22t90 -22t63 -60.5t23 -87.5q0 -48 -23 -86.5t-63 -60t-90 -21.5t-90 21.5t-63 60t-23 86.5q0 49 23 87.5zM172 0l477 700h81l-477 -700h-81zM303 610.5q-29 29.5 -73 29.5t-73 -29.5t-29 -74.5q0 -44 29 -73t73 -29t73 29t29 73
q0 45 -29 74.5zM517 249.5q23 38.5 63 60.5t90 22t90 -22t63 -60.5t23 -87.5q0 -48 -23 -86.5t-63 -60t-90 -21.5t-90 21.5t-63 60t-23 86.5q0 49 23 87.5zM911 249.5q23 38.5 63 60.5t90 22t90 -22t63 -60.5t23 -87.5q0 -48 -23 -86.5t-63 -60t-90 -21.5t-90 21.5t-63 60
t-23 86.5q0 49 23 87.5zM743 236.5q-29 29.5 -73 29.5t-73 -29.5t-29 -74.5q0 -44 29 -73t73 -29t73 29t29 73q0 45 -29 74.5zM1137 236.5q-29 29.5 -73 29.5t-73 -29.5t-29 -74.5q0 -44 29 -73t73 -29t73 29t29 73q0 45 -29 74.5z" />
    <glyph glyph-name="guilsinglleft" unicode="&#x2039;" horiz-adv-x="348" 
d="M295 510l-157 -255l157 -255h-83l-159 255l159 255h83z" />
    <glyph glyph-name="guilsinglright" unicode="&#x203a;" horiz-adv-x="348" 
d="M53 510h83l159 -255l-159 -255h-83l157 255z" />
    <glyph glyph-name="uni2042" unicode="&#x2042;" horiz-adv-x="957" 
d="M639 609l-122 -45l83 -98l-44 -40l-84 105l-83 -105l-43 40l84 99l-122 45l23 56l116 -53l-2 128h57l-3 -129l117 54zM399 136l-122 -45l83 -98l-44 -40l-84 105l-83 -105l-43 40l84 99l-122 45l23 56l116 -53l-2 128h57l-3 -129l117 54zM889 136l-122 -45l83 -98
l-44 -40l-84 105l-83 -105l-43 40l84 99l-122 45l23 56l116 -53l-2 128h57l-3 -129l117 54z" />
    <glyph glyph-name="fraction" unicode="&#x2044;" horiz-adv-x="186" 
d="M-162 0l444 700h66l-444 -700h-66z" />
    <glyph glyph-name="uni2051" unicode="&#x2051;" horiz-adv-x="467" 
d="M399 609l-122 -45l83 -98l-44 -40l-84 105l-83 -105l-43 40l84 99l-122 45l23 56l116 -53l-2 128h57l-3 -129l117 54zM399 135l-122 -45l83 -98l-44 -40l-84 105l-83 -105l-43 40l84 99l-122 45l23 56l116 -53l-2 128h57l-3 -129l117 54z" />
    <glyph glyph-name="uni2070" unicode="&#x2070;" horiz-adv-x="341" 
d="M64 755.5q40 51.5 107 51.5q66 0 106 -52t40 -136t-40 -136t-106 -52q-67 0 -107 51.5t-40 136.5t40 136.5zM234.5 715.5q-23.5 37.5 -63.5 37.5q-41 0 -64.5 -37t-23.5 -97q0 -59 23.5 -96t64.5 -37q40 0 63.5 37t23.5 96t-23.5 96.5z" />
    <glyph glyph-name="uni2074" unicode="&#x2074;" horiz-adv-x="340" 
d="M191 800h70v-221h59v-53h-59v-90h-56v90h-185v53zM205 740l-124 -161h124v161z" />
    <glyph glyph-name="uni2075" unicode="&#x2075;" horiz-adv-x="314" 
d="M269 748h-183l-7 -106q15 19 38 29t51 10q55 0 88.5 -34.5t33.5 -89.5q0 -57 -36.5 -92t-95.5 -35q-54 0 -90.5 30.5t-41.5 79.5h57q5 -26 25.5 -41.5t50.5 -15.5q31 0 51.5 21t20.5 53q0 33 -21 52.5t-55 19.5q-23 0 -41 -10.5t-29 -29.5h-53l10 211h227v-52z" />
    <glyph glyph-name="uni2076" unicode="&#x2076;" horiz-adv-x="323" 
d="M62.5 754q40.5 53 109.5 53q49 0 84 -28.5t42 -78.5h-55q-6 28 -25.5 44t-46.5 16q-42 0 -68 -36t-26 -94v-29q6 29 31.5 50t67.5 21q57 0 91 -33t34 -87q0 -55 -36 -88t-97 -33q-72 0 -109 49t-37 132q0 89 40.5 142zM222.5 605.5q-20.5 20.5 -54.5 20.5t-55 -20
t-21 -53t21 -53.5t55 -20.5t54.5 20t20.5 53t-20.5 53.5z" />
    <glyph glyph-name="uni2077" unicode="&#x2077;" horiz-adv-x="300" 
d="M21 800h261v-49l-163 -316h-62l163 313l-199 -1v53z" />
    <glyph glyph-name="uni2078" unicode="&#x2078;" horiz-adv-x="327" 
d="M42.5 592.5q19.5 24.5 51.5 33.5q-27 9 -43.5 30t-16.5 52q0 43 36.5 71t93.5 28q56 0 93 -28t37 -71q0 -31 -16 -51.5t-43 -30.5q31 -9 50 -33.5t19 -58.5q0 -45 -38 -74t-102 -29t-102.5 29t-38.5 74q0 34 19.5 58.5zM215.5 743.5q-20.5 16.5 -51.5 16.5t-51.5 -16.5
t-20.5 -41.5q0 -26 20.5 -41.5t51.5 -15.5q32 0 52 15.5t20 41.5q0 25 -20.5 41.5zM222.5 583q-23.5 18 -58.5 18t-58.5 -18t-23.5 -44t23.5 -43t58.5 -17t58.5 17t23.5 43t-23.5 44z" />
    <glyph glyph-name="uni2079" unicode="&#x2079;" horiz-adv-x="323" 
d="M260.5 484q-40.5 -53 -109.5 -53q-49 0 -84 28.5t-42 78.5h55q6 -28 25.5 -44t46.5 -16q42 0 68 36t26 94v29q-6 -29 -31.5 -50t-67.5 -21q-57 0 -91 33t-34 87q0 55 36 88t97 33q72 0 109 -49t37 -132q0 -89 -40.5 -142zM100.5 632.5q20.5 -20.5 54.5 -20.5t55 20t21 53
t-21 53.5t-55 20.5t-54.5 -20t-20.5 -53t20.5 -53.5z" />
    <glyph glyph-name="uni2080" unicode="&#x2080;" horiz-adv-x="340" 
d="M63 218.5q40 51.5 107 51.5q66 0 106 -52t40 -136t-40 -136t-106 -52q-67 0 -107 51.5t-40 136.5t40 136.5zM233.5 178.5q-23.5 37.5 -63.5 37.5q-41 0 -64.5 -37t-23.5 -97q0 -59 23.5 -96t64.5 -37q40 0 63.5 37t23.5 96t-23.5 96.5z" />
    <glyph glyph-name="uni2081" unicode="&#x2081;" horiz-adv-x="180" 
d="M85 -100v244q-7 -10 -20 -10h-65v55h65q9 0 15 8t6 20v47h55v-364h-56z" />
    <glyph glyph-name="uni2082" unicode="&#x2082;" horiz-adv-x="315" 
d="M26 144q0 57 37 91.5t93 34.5q60 0 96 -31.5t36 -82.5q0 -37 -18.5 -62.5t-53.5 -53.5l-106 -85h181v-55h-266v52l148 116q27 22 41.5 42t14.5 45q0 28 -20 44.5t-52 16.5q-34 0 -54.5 -19.5t-20.5 -54.5v-5h-56v7z" />
    <glyph glyph-name="uni2083" unicode="&#x2083;" horiz-adv-x="325" 
d="M66.5 240q34.5 30 94.5 30t95.5 -28t35.5 -74q0 -29 -17 -48.5t-43 -26.5q31 -6 49.5 -28t18.5 -56q0 -52 -38 -83.5t-102 -31.5q-66 0 -102 31.5t-37 89.5h57q1 -33 23 -50.5t60 -17.5q34 0 56.5 16.5t22.5 43.5t-23 43t-61 16h-22v41h23q34 0 55 15t21 40t-19.5 40
t-50.5 15q-34 0 -54 -16.5t-21 -44.5h-57q1 54 35.5 84z" />
    <glyph glyph-name="uni2084" unicode="&#x2084;" horiz-adv-x="340" 
d="M191 264h70v-221h59v-53h-59v-90h-56v90h-185v53zM205 204l-124 -161h124v161z" />
    <glyph glyph-name="uni2085" unicode="&#x2085;" horiz-adv-x="314" 
d="M269 212h-183l-7 -106q15 19 38 29t51 10q55 0 88.5 -34.5t33.5 -89.5q0 -57 -36.5 -92t-95.5 -35q-54 0 -90.5 30.5t-41.5 79.5h57q5 -26 25.5 -41.5t50.5 -15.5q31 0 51.5 21t20.5 53q0 33 -21 52.5t-55 19.5q-23 0 -41 -10.5t-29 -29.5h-53l10 211h227v-52z" />
    <glyph glyph-name="uni2086" unicode="&#x2086;" horiz-adv-x="323" 
d="M62.5 217q40.5 53 109.5 53q49 0 84 -28.5t42 -78.5h-55q-6 28 -25.5 44t-46.5 16q-42 0 -68 -36t-26 -94v-29q6 29 31.5 50t67.5 21q57 0 91 -33t34 -87q0 -55 -36 -88t-97 -33q-72 0 -109 49t-37 132q0 89 40.5 142zM222.5 68.5q-20.5 20.5 -54.5 20.5t-55 -20t-21 -53
t21 -53.5t55 -20.5t54.5 20t20.5 53t-20.5 53.5z" />
    <glyph glyph-name="uni2087" unicode="&#x2087;" horiz-adv-x="300" 
d="M21 265h261v-49l-163 -316h-62l163 313l-199 -1v53z" />
    <glyph glyph-name="uni2088" unicode="&#x2088;" horiz-adv-x="327" 
d="M42.5 55.5q19.5 24.5 51.5 33.5q-27 9 -43.5 30t-16.5 52q0 43 36.5 71t93.5 28q56 0 93 -28t37 -71q0 -31 -16 -51.5t-43 -30.5q31 -9 50 -33.5t19 -58.5q0 -45 -38 -74t-102 -29t-102.5 29t-38.5 74q0 34 19.5 58.5zM215.5 206.5q-20.5 16.5 -51.5 16.5t-51.5 -16.5
t-20.5 -41.5q0 -26 20.5 -41.5t51.5 -15.5q32 0 52 15.5t20 41.5q0 25 -20.5 41.5zM222.5 46q-23.5 18 -58.5 18t-58.5 -18t-23.5 -44t23.5 -43t58.5 -17t58.5 17t23.5 43t-23.5 44z" />
    <glyph glyph-name="uni2089" unicode="&#x2089;" horiz-adv-x="323" 
d="M260.5 -53q-40.5 -53 -109.5 -53q-49 0 -84 28.5t-42 78.5h55q6 -28 25.5 -44t46.5 -16q42 0 68 36t26 94v29q-6 -29 -31.5 -50t-67.5 -21q-57 0 -91 33t-34 87q0 55 36 88t97 33q72 0 109 -49t37 -132q0 -89 -40.5 -142zM100.5 95.5q20.5 -20.5 54.5 -20.5t55 20t21 53
t-21 53.5t-55 20.5t-54.5 -20t-20.5 -53t20.5 -53.5z" />
    <glyph glyph-name="franc" unicode="&#x20a3;" horiz-adv-x="546" 
d="M521 620h-348v-234h288v-80h-288v-119h148v-70h-148v-117h-87v117h-88v70h88v513h435v-80z" />
    <glyph glyph-name="uni20A8" unicode="&#x20a8;" horiz-adv-x="618" 
d="M584 700l-10 -64h-150q47 -47 56 -120h95l-10 -64h-85q-9 -61 -48 -105t-99 -61l157 -286h-98l-145 269h-179v80h174q59 0 98 27.5t50 75.5h-322v64h322q-10 48 -49 76t-98 28h-175v80h516z" />
    <glyph glyph-name="Euro" unicode="&#x20ac;" horiz-adv-x="660" 
d="M23 245v64h65q-1 12 -1 41q0 19 1 32h-65v64h69q15 122 86.5 191t182.5 69q110 0 178.5 -62.5t79.5 -168.5h-86q-10 70 -54.5 111.5t-114.5 41.5q-75 0 -124 -48t-59 -134h193l-10 -64h-189q-1 -12 -1 -31q0 -18 2 -42h171l-10 -64h-156q15 -82 63.5 -127.5t120.5 -45.5
q69 0 112.5 41t55.5 112h85q-12 -106 -79.5 -168.5t-176.5 -62.5q-108 0 -180 66.5t-90 184.5h-69z" />
    <glyph glyph-name="uni20BF" unicode="&#x20bf;" horiz-adv-x="623" 
d="M164 700v105h72v-105h71v105h72v-110q80 -11 124.5 -56.5t44.5 -119.5q0 -62 -32 -102.5t-93 -56.5q154 -29 154 -167q0 -80 -52 -129.5t-146 -59.5v-100h-72v96h-71v-96h-73v96h-95v700h96zM155 396h165q67 0 104 30t37 83t-36.5 82.5t-104.5 29.5h-165v-225zM155 79
h168q80 0 122.5 31t42.5 86q0 59 -43 90.5t-122 31.5h-168v-239z" />
    <glyph glyph-name="trademark" unicode="&#x2122;" horiz-adv-x="709" 
d="M39 700h238v-54h-89v-215h-60v215h-89v54zM308 700h82l88 -196l87 196h82v-269h-56v203l-90 -203h-49l-88 203v-203h-56v269z" />
    <glyph glyph-name="uni2126" unicode="&#x2126;" horiz-adv-x="741" 
d="M435 142q86 47 127 108.5t41 143.5q0 68 -30 121.5t-83.5 83.5t-119.5 30t-119 -30t-83 -83.5t-30 -121.5q0 -82 41 -143.5t127 -108.5v-142h-250v80h175v33q-182 84 -182 285q0 92 41 162t114 108t166 38t166 -38t114.5 -108t41.5 -161q0 -100 -45.5 -173t-136.5 -113
v-33h176v-80h-251v142z" />
    <glyph glyph-name="uni2153" unicode="&#x2153;" horiz-adv-x="680" 
d="M85 337v244q-7 -10 -20 -10h-65v55h65q9 0 15 8t6 20v47h55v-364h-56zM18 0l444 700h66l-444 -700h-66zM428.5 340q34.5 30 94.5 30t95.5 -28t35.5 -74q0 -29 -17 -48.5t-43 -26.5q31 -6 49.5 -28t18.5 -56q0 -52 -38 -83.5t-102 -31.5q-66 0 -102 31.5t-37 89.5h57
q1 -33 23 -50.5t60 -17.5q34 0 56.5 16.5t22.5 43.5t-23 43t-61 16h-22v41h23q34 0 55 15t21 40t-19.5 40t-50.5 15q-34 0 -54 -16.5t-21 -44.5h-57q1 54 35.5 84z" />
    <glyph glyph-name="uni2155" unicode="&#x2155;" horiz-adv-x="663" 
d="M85 337v244q-7 -10 -20 -10h-65v55h65q9 0 15 8t6 20v47h55v-364h-56zM18 0l444 700h66l-444 -700h-66zM624 312h-183l-7 -106q15 19 38 29t51 10q55 0 88.5 -34.5t33.5 -89.5q0 -57 -36.5 -92t-95.5 -35q-54 0 -90.5 30.5t-41.5 79.5h57q5 -26 25.5 -41.5t50.5 -15.5
q31 0 51.5 21t20.5 53q0 33 -21 52.5t-55 19.5q-23 0 -41 -10.5t-29 -29.5h-53l10 211h227v-52z" />
    <glyph glyph-name="uni2156" unicode="&#x2156;" horiz-adv-x="798" 
d="M26 580q0 57 37 91.5t93 34.5q60 0 96 -31.5t36 -82.5q0 -37 -18.5 -62.5t-53.5 -53.5l-106 -85h181v-55h-266v52l148 116q27 22 41.5 42t14.5 45q0 28 -20 44.5t-52 16.5q-34 0 -54.5 -19.5t-20.5 -54.5v-5h-56v7zM153 0l444 700h66l-444 -700h-66zM759 312h-183
l-7 -106q15 19 38 29t51 10q55 0 88.5 -34.5t33.5 -89.5q0 -57 -36.5 -92t-95.5 -35q-54 0 -90.5 30.5t-41.5 79.5h57q5 -26 25.5 -41.5t50.5 -15.5q31 0 51.5 21t20.5 53q0 33 -21 52.5t-55 19.5q-23 0 -41 -10.5t-29 -29.5h-53l10 211h227v-52z" />
    <glyph glyph-name="uni2157" unicode="&#x2157;" horiz-adv-x="808" 
d="M66.5 678q34.5 30 94.5 30t95.5 -28t35.5 -74q0 -29 -17 -48.5t-43 -26.5q31 -6 49.5 -28t18.5 -56q0 -52 -38 -83.5t-102 -31.5q-66 0 -102 31.5t-37 89.5h57q1 -33 23 -50.5t60 -17.5q34 0 56.5 16.5t22.5 43.5t-23 43t-61 16h-22v41h23q34 0 55 15t21 40t-19.5 40
t-50.5 15q-34 0 -54 -16.5t-21 -44.5h-57q1 54 35.5 84zM163 0l444 700h66l-444 -700h-66zM769 312h-183l-7 -106q15 19 38 29t51 10q55 0 88.5 -34.5t33.5 -89.5q0 -57 -36.5 -92t-95.5 -35q-54 0 -90.5 30.5t-41.5 79.5h57q5 -26 25.5 -41.5t50.5 -15.5q31 0 51.5 21
t20.5 53q0 33 -21 52.5t-55 19.5q-23 0 -41 -10.5t-29 -29.5h-53l10 211h227v-52z" />
    <glyph glyph-name="uni2158" unicode="&#x2158;" horiz-adv-x="823" 
d="M191 700h70v-221h59v-53h-59v-90h-56v90h-185v53zM205 640l-124 -161h124v161zM178 0l444 700h66l-444 -700h-66zM784 312h-183l-7 -106q15 19 38 29t51 10q55 0 88.5 -34.5t33.5 -89.5q0 -57 -36.5 -92t-95.5 -35q-54 0 -90.5 30.5t-41.5 79.5h57q5 -26 25.5 -41.5
t50.5 -15.5q31 0 51.5 21t20.5 53q0 33 -21 52.5t-55 19.5q-23 0 -41 -10.5t-29 -29.5h-53l10 211h227v-52z" />
    <glyph glyph-name="uni2159" unicode="&#x2159;" horiz-adv-x="656" 
d="M85 337v244q-7 -10 -20 -10h-65v55h65q9 0 15 8t6 20v47h55v-364h-56zM18 0l444 700h66l-444 -700h-66zM399.5 317q40.5 53 109.5 53q49 0 84 -28.5t42 -78.5h-55q-6 28 -25.5 44t-46.5 16q-42 0 -68 -36t-26 -94v-29q6 29 31.5 50t67.5 21q57 0 91 -33t34 -87
q0 -55 -36 -88t-97 -33q-72 0 -109 49t-37 132q0 89 40.5 142zM559.5 168.5q-20.5 20.5 -54.5 20.5t-55 -20t-21 -53t21 -53.5t55 -20.5t54.5 20t20.5 53t-20.5 53.5z" />
    <glyph glyph-name="oneeighth" unicode="&#x215b;" horiz-adv-x="669" 
d="M85 337v244q-7 -10 -20 -10h-65v55h65q9 0 15 8t6 20v47h55v-364h-56zM18 0l444 700h66l-444 -700h-66zM389.5 155.5q19.5 24.5 51.5 33.5q-27 9 -43.5 30t-16.5 52q0 43 36.5 71t93.5 28q56 0 93 -28t37 -71q0 -31 -16 -51.5t-43 -30.5q31 -9 50 -33.5t19 -58.5
q0 -45 -38 -74t-102 -29t-102.5 29t-38.5 74q0 34 19.5 58.5zM562.5 306.5q-20.5 16.5 -51.5 16.5t-51.5 -16.5t-20.5 -41.5q0 -26 20.5 -41.5t51.5 -15.5q32 0 52 15.5t20 41.5q0 25 -20.5 41.5zM569.5 146q-23.5 18 -58.5 18t-58.5 -18t-23.5 -44t23.5 -43t58.5 -17
t58.5 17t23.5 43t-23.5 44z" />
    <glyph glyph-name="threeeighths" unicode="&#x215c;" horiz-adv-x="814" 
d="M66.5 678q34.5 30 94.5 30t95.5 -28t35.5 -74q0 -29 -17 -48.5t-43 -26.5q31 -6 49.5 -28t18.5 -56q0 -52 -38 -83.5t-102 -31.5q-66 0 -102 31.5t-37 89.5h57q1 -33 23 -50.5t60 -17.5q34 0 56.5 16.5t22.5 43.5t-23 43t-61 16h-22v41h23q34 0 55 15t21 40t-19.5 40
t-50.5 15q-34 0 -54 -16.5t-21 -44.5h-57q1 54 35.5 84zM163 0l444 700h66l-444 -700h-66zM534.5 155.5q19.5 24.5 51.5 33.5q-27 9 -43.5 30t-16.5 52q0 43 36.5 71t93.5 28q56 0 93 -28t37 -71q0 -31 -16 -51.5t-43 -30.5q31 -9 50 -33.5t19 -58.5q0 -45 -38 -74t-102 -29
t-102.5 29t-38.5 74q0 34 19.5 58.5zM707.5 306.5q-20.5 16.5 -51.5 16.5t-51.5 -16.5t-20.5 -41.5q0 -26 20.5 -41.5t51.5 -15.5q32 0 52 15.5t20 41.5q0 25 -20.5 41.5zM714.5 146q-23.5 18 -58.5 18t-58.5 -18t-23.5 -44t23.5 -43t58.5 -17t58.5 17t23.5 43t-23.5 44z
" />
    <glyph glyph-name="fiveeighths" unicode="&#x215d;" horiz-adv-x="803" 
d="M269 648h-183l-7 -106q15 19 38 29t51 10q55 0 88.5 -34.5t33.5 -89.5q0 -57 -36.5 -92t-95.5 -35q-54 0 -90.5 30.5t-41.5 79.5h57q5 -26 25.5 -41.5t50.5 -15.5q31 0 51.5 21t20.5 53q0 33 -21 52.5t-55 19.5q-23 0 -41 -10.5t-29 -29.5h-53l10 211h227v-52zM152 0
l444 700h66l-444 -700h-66zM523.5 155.5q19.5 24.5 51.5 33.5q-27 9 -43.5 30t-16.5 52q0 43 36.5 71t93.5 28q56 0 93 -28t37 -71q0 -31 -16 -51.5t-43 -30.5q31 -9 50 -33.5t19 -58.5q0 -45 -38 -74t-102 -29t-102.5 29t-38.5 74q0 34 19.5 58.5zM696.5 306.5
q-20.5 16.5 -51.5 16.5t-51.5 -16.5t-20.5 -41.5q0 -26 20.5 -41.5t51.5 -15.5q32 0 52 15.5t20 41.5q0 25 -20.5 41.5zM703.5 146q-23.5 18 -58.5 18t-58.5 -18t-23.5 -44t23.5 -43t58.5 -17t58.5 17t23.5 43t-23.5 44z" />
    <glyph glyph-name="seveneighths" unicode="&#x215e;" horiz-adv-x="789" 
d="M21 700h261v-49l-163 -316h-62l163 313l-199 -1v53zM138 0l444 700h66l-444 -700h-66zM509.5 155.5q19.5 24.5 51.5 33.5q-27 9 -43.5 30t-16.5 52q0 43 36.5 71t93.5 28q56 0 93 -28t37 -71q0 -31 -16 -51.5t-43 -30.5q31 -9 50 -33.5t19 -58.5q0 -45 -38 -74t-102 -29
t-102.5 29t-38.5 74q0 34 19.5 58.5zM682.5 306.5q-20.5 16.5 -51.5 16.5t-51.5 -16.5t-20.5 -41.5q0 -26 20.5 -41.5t51.5 -15.5q32 0 52 15.5t20 41.5q0 25 -20.5 41.5zM689.5 146q-23.5 18 -58.5 18t-58.5 -18t-23.5 -44t23.5 -43t58.5 -17t58.5 17t23.5 43t-23.5 44z
" />
    <glyph glyph-name="arrowleft" unicode="&#x2190;" horiz-adv-x="579" 
d="M7 268l267 268l51 -51l-183 -179h381v-76h-381l183 -179l-51 -51z" />
    <glyph glyph-name="arrowup" unicode="&#x2191;" horiz-adv-x="642" 
d="M589 249l-51 -51l-179 183v-381h-76v381l-179 -183l-51 51l268 267z" />
    <glyph glyph-name="arrowright" unicode="&#x2192;" horiz-adv-x="579" 
d="M572 269l-267 -268l-51 51l183 179h-381v76h381l-183 179l51 51z" />
    <glyph glyph-name="arrowdown" unicode="&#x2193;" horiz-adv-x="642" 
d="M589 260l-268 -267l-268 267l51 51l179 -183v381h76v-381l179 183z" />
    <glyph glyph-name="arrowboth" unicode="&#x2194;" horiz-adv-x="860" 
d="M567 516l247 -248l-247 -248l-51 51l163 159h-498l163 -159l-51 -51l-247 248l247 248l51 -51l-163 -159h498l-163 159z" />
    <glyph glyph-name="arrowupdn" unicode="&#x2195;" horiz-adv-x="588" 
d="M46 474l248 247l248 -247l-51 -51l-159 163v-478l159 163l51 -51l-248 -247l-248 247l51 51l159 -163v478l-159 -163z" />
    <glyph glyph-name="uni2196" unicode="&#x2196;" horiz-adv-x="498" 
d="M53 510h379v-72l-259 3l272 -269l-54 -54l-269 272l3 -259h-72v379z" />
    <glyph glyph-name="uni2197" unicode="&#x2197;" horiz-adv-x="498" 
d="M445 510v-379h-72l3 259l-269 -272l-54 54l272 269l-259 -3v72h379z" />
    <glyph glyph-name="uni2198" unicode="&#x2198;" horiz-adv-x="498" 
d="M66 71l259 -3l-272 269l54 54l269 -272l-3 259h72v-379h-379v72z" />
    <glyph glyph-name="uni2199" unicode="&#x2199;" horiz-adv-x="498" 
d="M125 378l-3 -259l269 272l54 -54l-272 -269l259 3v-72h-379v379h72z" />
    <glyph glyph-name="partialdiff" unicode="&#x2202;" horiz-adv-x="591" 
d="M73 354q32 53 86 81.5t118 28.5q53 0 97.5 -16t70.5 -45q-64 207 -329 232v71q146 -7 242.5 -71.5t141.5 -163t45 -208.5q0 -78 -29.5 -139t-87 -95.5t-137.5 -34.5q-74 0 -130.5 30.5t-88 85t-31.5 122.5q0 69 32 122zM414 114q46 48 46 127q0 47 -23 82.5t-61.5 54.5
t-84.5 19q-73 0 -119.5 -46.5t-46.5 -118.5q0 -73 46.5 -119.5t119.5 -46.5q77 0 123 48z" />
    <glyph glyph-name="emptyset" unicode="&#x2205;" horiz-adv-x="616" 
d="M556.5 452.5q17.5 -45.5 17.5 -97.5q0 -74 -34.5 -134t-95 -93.5t-136.5 -33.5q-98 0 -169 55l-47 -48l-44 42l48 50q-54 68 -54 162q0 74 34.5 133.5t95.5 93.5t136 34q85 0 153 -44l49 51l44 -42l-47 -48q32 -35 49.5 -80.5zM153 252l253 263q-44 28 -98 28
q-51 0 -93 -25t-66 -68t-24 -95q0 -56 28 -103zM401 192q42 25 66 68t24 95q0 68 -40 119l-257 -267q50 -40 114 -40q51 0 93 25z" />
    <glyph glyph-name="uni2206" unicode="&#x2206;" horiz-adv-x="670" 
d="M25 0v70l256 630h107l256 -630v-70h-619zM118 79h428l-215 532z" />
    <glyph glyph-name="product" unicode="&#x220f;" horiz-adv-x="740" 
d="M708 700v-80h-91v-726h-87v726h-320v-726h-87v726h-91v80h676z" />
    <glyph glyph-name="summation" unicode="&#x2211;" horiz-adv-x="617" 
d="M39 -34l286 342l-266 320v72h510v-78h-395l237 -285v-56l-262 -311h428v-76h-538v72z" />
    <glyph glyph-name="minus" unicode="&#x2212;" horiz-adv-x="524" 
d="M58 252v69h408v-69h-408z" />
    <glyph glyph-name="radical" unicode="&#x221a;" horiz-adv-x="581" 
d="M99 365l-58 -28l-28 65l130 61l149 -362l182 599h83l-216 -700h-88z" />
    <glyph glyph-name="infinity" unicode="&#x221e;" horiz-adv-x="801" 
d="M490.5 123q-41.5 28 -91.5 102q-50 -74 -91 -102t-95 -28t-94.5 25.5t-61.5 69.5t-21 97t21 96.5t61.5 69t94.5 25.5t96 -28t91 -101q50 73 91 101t95 28t94.5 -25.5t62 -69t21.5 -96.5t-21.5 -97t-62 -69.5t-94.5 -25.5t-95.5 28zM285.5 194q30.5 25 72.5 92
q-43 67 -73 92.5t-68 25.5q-48 0 -76.5 -32t-28.5 -85q0 -55 28 -86.5t77 -31.5q38 0 68.5 25zM513.5 194.5q30.5 -25.5 68.5 -25.5q49 0 77 31.5t28 86.5q0 53 -28.5 85t-76.5 32q-38 0 -69 -25t-72 -92q42 -67 72.5 -92.5z" />
    <glyph glyph-name="integral" unicode="&#x222b;" horiz-adv-x="392" 
d="M99 -31q30 0 43 13t13 43v542q0 68 31.5 100.5t101.5 32.5h74v-75h-69q-30 0 -43 -13t-13 -43v-542q0 -68 -31.5 -100.5t-101.5 -32.5h-74v75h69z" />
    <glyph glyph-name="approxequal" unicode="&#x2248;" horiz-adv-x="524" 
d="M61 82q0 68 31 105.5t85 37.5q34 0 57.5 -11t48.5 -31q19 -14 31 -20.5t27 -6.5q30 0 42 18.5t12 51.5h69q0 -68 -31 -105t-86 -37q-35 0 -58 11t-49 30q-18 14 -30 20.5t-27 6.5q-29 0 -41 -18.5t-12 -51.5h-69zM61 300q0 68 31 105.5t85 37.5q34 0 57.5 -11t48.5 -31
q19 -14 31 -20.5t27 -6.5q30 0 42 18.5t12 51.5h69q0 -68 -31 -105t-86 -37q-35 0 -58 11t-49 30q-18 14 -30 20.5t-27 6.5q-29 0 -41 -18.5t-12 -51.5h-69z" />
    <glyph glyph-name="notequal" unicode="&#x2260;" horiz-adv-x="524" 
d="M456 345h-135l-47 -139h182v-69h-206l-33 -99h-72l33 99h-110v69h134l47 139h-181v70h204l32 94h72l-32 -94h112v-70z" />
    <glyph glyph-name="lessequal" unicode="&#x2264;" horiz-adv-x="524" 
d="M72 293v78l380 170v-80l-288 -129l288 -129v-80zM72 0v70h380v-70h-380z" />
    <glyph glyph-name="greaterequal" unicode="&#x2265;" horiz-adv-x="524" 
d="M452 371v-78l-380 -170v80l288 129l-288 129v80zM72 0v70h380v-70h-380z" />
    <glyph glyph-name="dotmath" unicode="&#x22c5;" horiz-adv-x="206" 
d="M62 333.5q16 15.5 41 15.5t41 -15.5t16 -40.5t-16 -40.5t-41 -15.5t-41 15.5t-16 40.5t16 40.5z" />
    <glyph glyph-name="filledbox" unicode="&#x25a0;" horiz-adv-x="840" 
d="M68 700h704v-700h-704v700z" />
    <glyph glyph-name="uni25A1" unicode="&#x25a1;" horiz-adv-x="837" 
d="M68 700h701v-700h-701v700zM151 624v-548h535v548h-535z" />
    <glyph glyph-name="uni25AF" unicode="&#x25af;" horiz-adv-x="605" 
d="M68 700h469v-700h-469v700zM151 624v-548h302v548h-302z" />
    <glyph glyph-name="triagup" unicode="&#x25b2;" horiz-adv-x="878" 
d="M440 712l409 -712h-820z" />
    <glyph glyph-name="uni25B3" unicode="&#x25b3;" horiz-adv-x="878" 
d="M440 712l409 -712h-820zM440 558l-280 -483h558z" />
    <glyph glyph-name="uni25B6" unicode="&#x25b6;" horiz-adv-x="513" 
d="M56 506l446 -256l-446 -256v512z" />
    <glyph glyph-name="uni25B7" unicode="&#x25b7;" horiz-adv-x="520" 
d="M56 515l453 -260l-453 -260v520zM118 100l272 155l-272 156v-311z" />
    <glyph glyph-name="uni25C0" unicode="&#x25c0;" horiz-adv-x="513" 
d="M457 506v-512l-446 256z" />
    <glyph glyph-name="uni25C1" unicode="&#x25c1;" horiz-adv-x="520" 
d="M464 515v-520l-453 260zM402 100v311l-272 -156z" />
    <glyph glyph-name="lozenge" unicode="&#x25ca;" horiz-adv-x="598" 
d="M350 700l202 -350l-202 -351h-102l-202 351l202 350h102zM299 67l158 283l-158 283l-158 -283z" />
    <glyph glyph-name="circle" unicode="&#x25cb;" horiz-adv-x="802" 
d="M584 659.5q82 -46.5 129 -128t47 -181.5t-47 -181.5t-129 -128t-183 -46.5t-183.5 46.5t-129 128t-46.5 181.5t46.5 181.5t129 128t183.5 46.5t183 -46.5zM248 614.5q-68 -39.5 -107 -109t-39 -155.5t39 -155.5t107 -109t153 -39.5t153 39.5t107 109t39 155.5t-39 155.5
t-107 109t-153 39.5t-153 -39.5z" />
    <glyph glyph-name="uni25CF" unicode="&#x25cf;" horiz-adv-x="796" 
d="M216.5 659.5q-81.5 -46.5 -128 -128t-46.5 -181.5t46.5 -181.5t128 -128t181.5 -46.5t181.5 46.5t128 128t46.5 181.5t-46.5 181.5t-128 128t-181.5 46.5t-181.5 -46.5z" />
    <glyph glyph-name="uni25FD" unicode="&#x25fd;" horiz-adv-x="622" 
d="M56 509h510v-510h-510v510zM121 447v-385h379v385h-379z" />
    <glyph glyph-name="uni25FE" unicode="&#x25fe;" horiz-adv-x="622" 
d="M56 510h510v-510h-510v510z" />
    <glyph glyph-name="uni262E" unicode="&#x262e;" horiz-adv-x="799" 
d="M88 533q46 81 127.5 127t183.5 46t184 -46t128 -127t46 -183t-46 -183t-128 -127t-184 -46t-183.5 46t-127.5 127t-46 183t46 183zM367 632q-73 -6 -131 -44t-90.5 -100t-32.5 -138q0 -45 14.5 -85t41.5 -71l198 203v235zM431 397l198 -203q27 31 42 71t15 85
q0 76 -33 138t-91 100t-131 44v-235zM431 68q50 4 93.5 22.5t76.5 50.5l-170 175v-248zM198 141q33 -32 76.5 -50.5t92.5 -22.5v247z" />
    <glyph glyph-name="uni26AA" unicode="&#x26aa;" horiz-adv-x="590" 
d="M425 477q59 -34 93 -92.5t34 -129.5t-34 -129.5t-93 -92.5t-130 -34t-130 34t-93 92.5t-34 129.5t34 129.5t93 92.5t130 34t130 -34zM196 425.5q-45 -26.5 -71.5 -71.5t-26.5 -99t26.5 -99t71.5 -71.5t99 -26.5t99 26.5t71.5 71.5t26.5 99t-26.5 99t-71.5 71.5t-99 26.5
t-99 -26.5z" />
    <glyph glyph-name="uni26AB" unicode="&#x26ab;" horiz-adv-x="590" 
d="M425 477q59 -34 93 -92.5t34 -129.5t-34 -129.5t-93 -92.5t-130 -34t-130 34t-93 92.5t-34 129.5t34 129.5t93 92.5t130 34t130 -34z" />
    <glyph glyph-name="uni2713" unicode="&#x2713;" horiz-adv-x="1048" 
d="M29 349l58 59l291 -290l581 582l60 -59l-641 -641z" />
    <glyph glyph-name="uni2715" unicode="&#x2715;" horiz-adv-x="781" 
d="M100 700l290 -290l291 290l59 -59l-291 -290l291 -292l-59 -58l-291 290l-290 -290l-59 58l291 292l-291 290z" />
    <glyph glyph-name="uni2780" unicode="&#x2780;" horiz-adv-x="802" 
d="M584 659.5q82 -46.5 129 -128t47 -181.5t-47 -181.5t-129 -128t-183 -46.5t-183.5 46.5t-129 128t-46.5 181.5t46.5 181.5t129 128t183.5 46.5t183 -46.5zM248 614.5q-68 -39.5 -107 -109t-39 -155.5t39 -155.5t107 -109t153 -39.5t153 39.5t107 109t39 155.5t-39 155.5
t-107 109t-153 39.5t-153 -39.5zM380 168v244q-7 -10 -20 -10h-65v55h65q9 0 15 8t6 20v47h55v-364h-56z" />
    <glyph glyph-name="uni2781" unicode="&#x2781;" horiz-adv-x="802" 
d="M584 659.5q82 -46.5 129 -128t47 -181.5t-47 -181.5t-129 -128t-183 -46.5t-183.5 46.5t-129 128t-46.5 181.5t46.5 181.5t129 128t183.5 46.5t183 -46.5zM248 614.5q-68 -39.5 -107 -109t-39 -155.5t39 -155.5t107 -109t153 -39.5t153 39.5t107 109t39 155.5t-39 155.5
t-107 109t-153 39.5t-153 -39.5zM266 412q0 57 37 91.5t93 34.5q60 0 96 -31.5t36 -82.5q0 -37 -18.5 -62.5t-53.5 -53.5l-106 -85h181v-55h-266v52l148 116q27 22 41.5 42t14.5 45q0 28 -20 44.5t-52 16.5q-34 0 -54.5 -19.5t-20.5 -54.5v-5h-56v7z" />
    <glyph glyph-name="uni2782" unicode="&#x2782;" horiz-adv-x="802" 
d="M584 659.5q82 -46.5 129 -128t47 -181.5t-47 -181.5t-129 -128t-183 -46.5t-183.5 46.5t-129 128t-46.5 181.5t46.5 181.5t129 128t183.5 46.5t183 -46.5zM248 614.5q-68 -39.5 -107 -109t-39 -155.5t39 -155.5t107 -109t153 -39.5t153 39.5t107 109t39 155.5t-39 155.5
t-107 109t-153 39.5t-153 -39.5zM303.5 508q34.5 30 94.5 30t95.5 -28t35.5 -74q0 -29 -17 -48.5t-43 -26.5q31 -6 49.5 -28t18.5 -56q0 -52 -38 -83.5t-102 -31.5q-66 0 -102 31.5t-37 89.5h57q1 -33 23 -50.5t60 -17.5q34 0 56.5 16.5t22.5 43.5t-23 43t-61 16h-22v41h23
q34 0 55 15t21 40t-19.5 40t-50.5 15q-34 0 -54 -16.5t-21 -44.5h-57q1 54 35.5 84z" />
    <glyph glyph-name="uni2783" unicode="&#x2783;" horiz-adv-x="802" 
d="M584 659.5q82 -46.5 129 -128t47 -181.5t-47 -181.5t-129 -128t-183 -46.5t-183.5 46.5t-129 128t-46.5 181.5t46.5 181.5t129 128t183.5 46.5t183 -46.5zM248 614.5q-68 -39.5 -107 -109t-39 -155.5t39 -155.5t107 -109t153 -39.5t153 39.5t107 109t39 155.5t-39 155.5
t-107 109t-153 39.5t-153 -39.5zM405 532h70v-221h59v-53h-59v-90h-56v90h-185v53zM419 472l-124 -161h124v161z" />
    <glyph glyph-name="uni2784" unicode="&#x2784;" horiz-adv-x="802" 
d="M584 659.5q82 -46.5 129 -128t47 -181.5t-47 -181.5t-129 -128t-183 -46.5t-183.5 46.5t-129 128t-46.5 181.5t46.5 181.5t129 128t183.5 46.5t183 -46.5zM248 614.5q-68 -39.5 -107 -109t-39 -155.5t39 -155.5t107 -109t153 -39.5t153 39.5t107 109t39 155.5t-39 155.5
t-107 109t-153 39.5t-153 -39.5zM515 480h-183l-7 -106q15 19 38 29t51 10q55 0 88.5 -34.5t33.5 -89.5q0 -57 -36.5 -92t-95.5 -35q-54 0 -90.5 30.5t-41.5 79.5h57q5 -26 25.5 -41.5t50.5 -15.5q31 0 51.5 21t20.5 53q0 33 -21 52.5t-55 19.5q-23 0 -41 -10.5t-29 -29.5
h-53l10 211h227v-52z" />
    <glyph glyph-name="uni2785" unicode="&#x2785;" horiz-adv-x="802" 
d="M584 659.5q82 -46.5 129 -128t47 -181.5t-47 -181.5t-129 -128t-183 -46.5t-183.5 46.5t-129 128t-46.5 181.5t46.5 181.5t129 128t183.5 46.5t183 -46.5zM248 614.5q-68 -39.5 -107 -109t-39 -155.5t39 -155.5t107 -109t153 -39.5t153 39.5t107 109t39 155.5t-39 155.5
t-107 109t-153 39.5t-153 -39.5zM294.5 485q40.5 53 109.5 53q49 0 84 -28.5t42 -78.5h-55q-6 28 -25.5 44t-46.5 16q-42 0 -68 -36t-26 -94v-29q6 29 31.5 50t67.5 21q57 0 91 -33t34 -87q0 -55 -36 -88t-97 -33q-72 0 -109 49t-37 132q0 89 40.5 142zM454.5 336.5
q-20.5 20.5 -54.5 20.5t-55 -20t-21 -53t21 -53.5t55 -20.5t54.5 20t20.5 53t-20.5 53.5z" />
    <glyph glyph-name="uni2786" unicode="&#x2786;" horiz-adv-x="802" 
d="M584 659.5q82 -46.5 129 -128t47 -181.5t-47 -181.5t-129 -128t-183 -46.5t-183.5 46.5t-129 128t-46.5 181.5t46.5 181.5t129 128t183.5 46.5t183 -46.5zM248 614.5q-68 -39.5 -107 -109t-39 -155.5t39 -155.5t107 -109t153 -39.5t153 39.5t107 109t39 155.5t-39 155.5
t-107 109t-153 39.5t-153 -39.5zM275 533h261v-49l-163 -316h-62l163 313l-199 -1v53z" />
    <glyph glyph-name="uni2787" unicode="&#x2787;" horiz-adv-x="802" 
d="M584 659.5q82 -46.5 129 -128t47 -181.5t-47 -181.5t-129 -128t-183 -46.5t-183.5 46.5t-129 128t-46.5 181.5t46.5 181.5t129 128t183.5 46.5t183 -46.5zM248 614.5q-68 -39.5 -107 -109t-39 -155.5t39 -155.5t107 -109t153 -39.5t153 39.5t107 109t39 155.5t-39 155.5
t-107 109t-153 39.5t-153 -39.5zM279.5 323.5q19.5 24.5 51.5 33.5q-27 9 -43.5 30t-16.5 52q0 43 36.5 71t93.5 28q56 0 93 -28t37 -71q0 -31 -16 -51.5t-43 -30.5q31 -9 50 -33.5t19 -58.5q0 -45 -38 -74t-102 -29t-102.5 29t-38.5 74q0 34 19.5 58.5zM452.5 474.5
q-20.5 16.5 -51.5 16.5t-51.5 -16.5t-20.5 -41.5q0 -26 20.5 -41.5t51.5 -15.5q32 0 52 15.5t20 41.5q0 25 -20.5 41.5zM459.5 314q-23.5 18 -58.5 18t-58.5 -18t-23.5 -44t23.5 -43t58.5 -17t58.5 17t23.5 43t-23.5 44z" />
    <glyph glyph-name="uni2788" unicode="&#x2788;" horiz-adv-x="802" 
d="M584 659.5q82 -46.5 129 -128t47 -181.5t-47 -181.5t-129 -128t-183 -46.5t-183.5 46.5t-129 128t-46.5 181.5t46.5 181.5t129 128t183.5 46.5t183 -46.5zM248 614.5q-68 -39.5 -107 -109t-39 -155.5t39 -155.5t107 -109t153 -39.5t153 39.5t107 109t39 155.5t-39 155.5
t-107 109t-153 39.5t-153 -39.5zM501.5 215q-40.5 -53 -109.5 -53q-49 0 -84 28.5t-42 78.5h55q6 -28 25.5 -44t46.5 -16q42 0 68 36t26 94v29q-6 -29 -31.5 -50t-67.5 -21q-57 0 -91 33t-34 87q0 55 36 88t97 33q72 0 109 -49t37 -132q0 -89 -40.5 -142zM341.5 363.5
q20.5 -20.5 54.5 -20.5t55 20t21 53t-21 53.5t-55 20.5t-54.5 -20t-20.5 -53t20.5 -53.5z" />
    <glyph glyph-name="uni278A" unicode="&#x278a;" horiz-adv-x="796" 
d="M216.5 658.5q-81.5 -46.5 -128 -128t-46.5 -181.5t46.5 -181.5t128 -128t181.5 -46.5t181.5 46.5t128 128t46.5 181.5t-46.5 181.5t-128 128t-181.5 46.5t-181.5 -46.5zM377 167v244q-7 -10 -20 -10h-65v55h65q9 0 15 8t6 20v47h55v-364h-56z" />
    <glyph glyph-name="uni278B" unicode="&#x278b;" horiz-adv-x="796" 
d="M216.5 659.5q-81.5 -46.5 -128 -128t-46.5 -181.5t46.5 -181.5t128 -128t181.5 -46.5t181.5 46.5t128 128t46.5 181.5t-46.5 181.5t-128 128t-181.5 46.5t-181.5 -46.5zM263 412q0 57 37 91.5t93 34.5q60 0 96 -31.5t36 -82.5q0 -37 -18.5 -62.5t-53.5 -53.5l-106 -85
h181v-55h-266v52l148 116q27 22 41.5 42t14.5 45q0 28 -20 44.5t-52 16.5q-34 0 -54.5 -19.5t-20.5 -54.5v-5h-56v7z" />
    <glyph glyph-name="uni278C" unicode="&#x278c;" horiz-adv-x="796" 
d="M216.5 659.5q-81.5 -46.5 -128 -128t-46.5 -181.5t46.5 -181.5t128 -128t181.5 -46.5t181.5 46.5t128 128t46.5 181.5t-46.5 181.5t-128 128t-181.5 46.5t-181.5 -46.5zM300.5 508q34.5 30 94.5 30t95.5 -28t35.5 -74q0 -29 -17 -48.5t-43 -26.5q31 -6 49.5 -28t18.5 -56
q0 -52 -38 -83.5t-102 -31.5q-66 0 -102 31.5t-37 89.5h57q1 -33 23 -50.5t60 -17.5q34 0 56.5 16.5t22.5 43.5t-23 43t-61 16h-22v41h23q34 0 55 15t21 40t-19.5 40t-50.5 15q-34 0 -54 -16.5t-21 -44.5h-57q1 54 35.5 84z" />
    <glyph glyph-name="uni278D" unicode="&#x278d;" horiz-adv-x="796" 
d="M216.5 659.5q-81.5 -46.5 -128 -128t-46.5 -181.5t46.5 -181.5t128 -128t181.5 -46.5t181.5 46.5t128 128t46.5 181.5t-46.5 181.5t-128 128t-181.5 46.5t-181.5 -46.5zM402 532h70v-221h59v-53h-59v-90h-56v90h-185v53zM416 472l-124 -161h124v161z" />
    <glyph glyph-name="uni278E" unicode="&#x278e;" horiz-adv-x="796" 
d="M216.5 659.5q-81.5 -46.5 -128 -128t-46.5 -181.5t46.5 -181.5t128 -128t181.5 -46.5t181.5 46.5t128 128t46.5 181.5t-46.5 181.5t-128 128t-181.5 46.5t-181.5 -46.5zM512 480h-183l-7 -106q15 19 38 29t51 10q55 0 88.5 -34.5t33.5 -89.5q0 -57 -36.5 -92t-95.5 -35
q-54 0 -90.5 30.5t-41.5 79.5h57q5 -26 25.5 -41.5t50.5 -15.5q31 0 51.5 21t20.5 53q0 33 -21 52.5t-55 19.5q-23 0 -41 -10.5t-29 -29.5h-53l10 211h227v-52z" />
    <glyph glyph-name="uni278F" unicode="&#x278f;" horiz-adv-x="796" 
d="M216.5 659.5q-81.5 -46.5 -128 -128t-46.5 -181.5t46.5 -181.5t128 -128t181.5 -46.5t181.5 46.5t128 128t46.5 181.5t-46.5 181.5t-128 128t-181.5 46.5t-181.5 -46.5zM291.5 485q40.5 53 109.5 53q49 0 84 -28.5t42 -78.5h-55q-6 28 -25.5 44t-46.5 16q-42 0 -68 -36
t-26 -94v-29q6 29 31.5 50t67.5 21q57 0 91 -33t34 -87q0 -55 -36 -88t-97 -33q-72 0 -109 49t-37 132q0 89 40.5 142zM451.5 336.5q-20.5 20.5 -54.5 20.5t-55 -20t-21 -53t21 -53.5t55 -20.5t54.5 20t20.5 53t-20.5 53.5z" />
    <glyph glyph-name="uni2790" unicode="&#x2790;" horiz-adv-x="796" 
d="M216.5 659.5q-81.5 -46.5 -128 -128t-46.5 -181.5t46.5 -181.5t128 -128t181.5 -46.5t181.5 46.5t128 128t46.5 181.5t-46.5 181.5t-128 128t-181.5 46.5t-181.5 -46.5zM272 533h261v-49l-163 -316h-62l163 313l-199 -1v53z" />
    <glyph glyph-name="uni2791" unicode="&#x2791;" horiz-adv-x="796" 
d="M216.5 659.5q-81.5 -46.5 -128 -128t-46.5 -181.5t46.5 -181.5t128 -128t181.5 -46.5t181.5 46.5t128 128t46.5 181.5t-46.5 181.5t-128 128t-181.5 46.5t-181.5 -46.5zM276.5 323.5q19.5 24.5 51.5 33.5q-27 9 -43.5 30t-16.5 52q0 43 36.5 71t93.5 28q56 0 93 -28
t37 -71q0 -31 -16 -51.5t-43 -30.5q31 -9 50 -33.5t19 -58.5q0 -45 -38 -74t-102 -29t-102.5 29t-38.5 74q0 34 19.5 58.5zM449.5 474.5q-20.5 16.5 -51.5 16.5t-51.5 -16.5t-20.5 -41.5q0 -26 20.5 -41.5t51.5 -15.5q32 0 52 15.5t20 41.5q0 25 -20.5 41.5zM456.5 314
q-23.5 18 -58.5 18t-58.5 -18t-23.5 -44t23.5 -43t58.5 -17t58.5 17t23.5 43t-23.5 44z" />
    <glyph glyph-name="uni2792" unicode="&#x2792;" horiz-adv-x="796" 
d="M216.5 659.5q-81.5 -46.5 -128 -128t-46.5 -181.5t46.5 -181.5t128 -128t181.5 -46.5t181.5 46.5t128 128t46.5 181.5t-46.5 181.5t-128 128t-181.5 46.5t-181.5 -46.5zM498.5 215q-40.5 -53 -109.5 -53q-49 0 -84 28.5t-42 78.5h55q6 -28 25.5 -44t46.5 -16q42 0 68 36
t26 94v29q-6 -29 -31.5 -50t-67.5 -21q-57 0 -91 33t-34 87q0 55 36 88t97 33q72 0 109 -49t37 -132q0 -89 -40.5 -142zM338.5 363.5q20.5 -20.5 54.5 -20.5t55 20t21 53t-21 53.5t-55 20.5t-54.5 -20t-20.5 -53t20.5 -53.5z" />
    <glyph glyph-name="fl" unicode="&#xfb02;" horiz-adv-x="509" 
d="M90 510v57q0 68 31.5 100.5t101.5 32.5h94v-75h-89q-30 0 -43 -13t-13 -43v-59h144v-75h-144v-435h-82v435h-92v75h92zM371 700h82v-700h-82v700z" />
    <glyph glyph-name="u1F10B" unicode="&#x1f10b;" horiz-adv-x="802" 
d="M584 659.5q82 -46.5 129 -128t47 -181.5t-47 -181.5t-129 -128t-183 -46.5t-183.5 46.5t-129 128t-46.5 181.5t46.5 181.5t129 128t183.5 46.5t183 -46.5zM248 614.5q-68 -39.5 -107 -109t-39 -155.5t39 -155.5t107 -109t153 -39.5t153 39.5t107 109t39 155.5t-39 155.5
t-107 109t-153 39.5t-153 -39.5zM294 486.5q40 51.5 107 51.5q66 0 106 -52t40 -136t-40 -136t-106 -52q-67 0 -107 51.5t-40 136.5t40 136.5zM464.5 446.5q-23.5 37.5 -63.5 37.5q-41 0 -64.5 -37t-23.5 -97q0 -59 23.5 -96t64.5 -37q40 0 63.5 37t23.5 96t-23.5 96.5z" />
    <glyph glyph-name="u1F10C" unicode="&#x1f10c;" horiz-adv-x="796" 
d="M216.5 659.5q-81.5 -46.5 -128 -128t-46.5 -181.5t46.5 -181.5t128 -128t181.5 -46.5t181.5 46.5t128 128t46.5 181.5t-46.5 181.5t-128 128t-181.5 46.5t-181.5 -46.5zM291 486.5q40 51.5 107 51.5q66 0 106 -52t40 -136t-40 -136t-106 -52q-67 0 -107 51.5t-40 136.5
t40 136.5zM461.5 446.5q-23.5 37.5 -63.5 37.5q-41 0 -64.5 -37t-23.5 -97q0 -59 23.5 -96t64.5 -37q40 0 63.5 37t23.5 96t-23.5 96.5z" />
    <glyph glyph-name="J.ss06" horiz-adv-x="582" 
d="M117 258q0 -87 40 -135.5t116 -48.5q79 0 118.5 45t39.5 142v439h87v-437q0 -269 -245 -269q-117 0 -180.5 68t-62.5 196h87z" />
    <glyph glyph-name="Jcircumflex.ss06" horiz-adv-x="582" 
d="M117 258q0 -87 40 -135.5t116 -48.5q79 0 118.5 45t39.5 142v439h87v-437q0 -269 -245 -269q-117 0 -180.5 68t-62.5 196h87zM476 842l-87 -82h-78l126 136h78l126 -136h-79z" />
    <glyph glyph-name="Q.ss07" horiz-adv-x="752" 
d="M668 167q-42 -81 -117 -126l76 -119h-88l-56 88q-53 -16 -107 -16q-97 0 -173 46t-118.5 127t-42.5 183t42.5 183t118.5 127t173 46t173 -46t118.5 -127t42.5 -183t-42 -183zM438 81l-86 136h88l67 -106q54 36 84 98t30 141q0 80 -31 142.5t-86.5 98t-127.5 35.5
t-127.5 -35.5t-86.5 -98t-31 -142.5t31 -142.5t86.5 -98t127.5 -35.5q27 0 62 7z" />
    <glyph glyph-name="a.ss01" horiz-adv-x="596" 
d="M540 510v-510h-71l-11 82q-64 -88 -175 -88q-71 0 -126.5 31t-87 90t-31.5 140q0 77 31.5 136t87.5 92t126 33q61 0 105 -23t70 -63l11 80h71zM378.5 90.5q38.5 23.5 59.5 66t21 96.5q0 55 -21 98.5t-59.5 67.5t-87.5 24q-76 0 -122.5 -52.5t-46.5 -135.5t46.5 -135.5
t122.5 -52.5q49 0 87.5 23.5z" />
    <glyph glyph-name="a.ss02" horiz-adv-x="523" 
d="M420.5 468.5q53.5 -47.5 53.5 -136.5v-332h-71l-7 80q-60 -86 -171 -86q-85 0 -136.5 40t-51.5 109q0 77 52.5 118t152.5 41h150v35q0 50 -33.5 78t-93.5 28q-53 0 -87.5 -23.5t-42.5 -62.5h-82q9 75 66.5 117t149.5 42q98 0 151.5 -47.5zM392 233h-158q-114 0 -114 -85
q0 -38 30 -61t81 -23q75 0 118 39.5t43 104.5v25z" />
    <glyph glyph-name="aacute.ss01" horiz-adv-x="596" 
d="M540 510v-510h-71l-11 82q-64 -88 -175 -88q-71 0 -126.5 31t-87 90t-31.5 140q0 77 31.5 136t87.5 92t126 33q61 0 105 -23t70 -63l11 80h71zM378.5 90.5q38.5 23.5 59.5 66t21 96.5q0 55 -21 98.5t-59.5 67.5t-87.5 24q-76 0 -122.5 -52.5t-46.5 -135.5t46.5 -135.5
t122.5 -52.5q49 0 87.5 23.5zM259 571l85 135h96l-117 -135h-64z" />
    <glyph glyph-name="aacute.ss02" horiz-adv-x="523" 
d="M420.5 468.5q53.5 -47.5 53.5 -136.5v-332h-71l-7 80q-60 -86 -171 -86q-85 0 -136.5 40t-51.5 109q0 77 52.5 118t152.5 41h150v35q0 50 -33.5 78t-93.5 28q-53 0 -87.5 -23.5t-42.5 -62.5h-82q9 75 66.5 117t149.5 42q98 0 151.5 -47.5zM392 233h-158q-114 0 -114 -85
q0 -38 30 -61t81 -23q75 0 118 39.5t43 104.5v25zM235 571l85 135h96l-117 -135h-64z" />
    <glyph glyph-name="abreve.ss01" horiz-adv-x="596" 
d="M540 510v-510h-71l-11 82q-64 -88 -175 -88q-71 0 -126.5 31t-87 90t-31.5 140q0 77 31.5 136t87.5 92t126 33q61 0 105 -23t70 -63l11 80h71zM378.5 90.5q38.5 23.5 59.5 66t21 96.5q0 55 -21 98.5t-59.5 67.5t-87.5 24q-76 0 -122.5 -52.5t-46.5 -135.5t46.5 -135.5
t122.5 -52.5q49 0 87.5 23.5zM216 706q0 -33 20 -53.5t52 -20.5t53 20.5t21 53.5h65q-1 -62 -40 -99.5t-100 -37.5q-60 0 -97.5 37t-38.5 100h65z" />
    <glyph glyph-name="abreve.ss02" horiz-adv-x="523" 
d="M420.5 468.5q53.5 -47.5 53.5 -136.5v-332h-71l-7 80q-60 -86 -171 -86q-85 0 -136.5 40t-51.5 109q0 77 52.5 118t152.5 41h150v35q0 50 -33.5 78t-93.5 28q-53 0 -87.5 -23.5t-42.5 -62.5h-82q9 75 66.5 117t149.5 42q98 0 151.5 -47.5zM392 233h-158q-114 0 -114 -85
q0 -38 30 -61t81 -23q75 0 118 39.5t43 104.5v25zM192 706q0 -33 20 -53.5t52 -20.5t53 20.5t21 53.5h65q-1 -62 -40 -99.5t-100 -37.5q-60 0 -97.5 37t-38.5 100h65z" />
    <glyph glyph-name="acircumflex.ss01" horiz-adv-x="596" 
d="M540 510v-510h-71l-11 82q-64 -88 -175 -88q-71 0 -126.5 31t-87 90t-31.5 140q0 77 31.5 136t87.5 92t126 33q61 0 105 -23t70 -63l11 80h71zM378.5 90.5q38.5 23.5 59.5 66t21 96.5q0 55 -21 98.5t-59.5 67.5t-87.5 24q-76 0 -122.5 -52.5t-46.5 -135.5t46.5 -135.5
t122.5 -52.5q49 0 87.5 23.5zM289 652l-87 -82h-78l126 136h78l126 -136h-79z" />
    <glyph glyph-name="acircumflex.ss02" horiz-adv-x="523" 
d="M420.5 468.5q53.5 -47.5 53.5 -136.5v-332h-71l-7 80q-60 -86 -171 -86q-85 0 -136.5 40t-51.5 109q0 77 52.5 118t152.5 41h150v35q0 50 -33.5 78t-93.5 28q-53 0 -87.5 -23.5t-42.5 -62.5h-82q9 75 66.5 117t149.5 42q98 0 151.5 -47.5zM392 233h-158q-114 0 -114 -85
q0 -38 30 -61t81 -23q75 0 118 39.5t43 104.5v25zM265 652l-87 -82h-78l126 136h78l126 -136h-79z" />
    <glyph glyph-name="adieresis.ss01" horiz-adv-x="596" 
d="M540 510v-510h-71l-11 82q-64 -88 -175 -88q-71 0 -126.5 31t-87 90t-31.5 140q0 77 31.5 136t87.5 92t126 33q61 0 105 -23t70 -63l11 80h71zM378.5 90.5q38.5 23.5 59.5 66t21 96.5q0 55 -21 98.5t-59.5 67.5t-87.5 24q-76 0 -122.5 -52.5t-46.5 -135.5t46.5 -135.5
t122.5 -52.5q49 0 87.5 23.5zM160.5 678.5q14.5 14.5 37.5 14.5t38 -14.5t15 -37.5q0 -22 -15 -36.5t-38 -14.5q-22 0 -37 14.5t-15 36.5q0 23 14.5 37.5zM342.5 678q15.5 15 37.5 15t37 -14.5t15 -37.5q0 -22 -15 -36.5t-37 -14.5t-37.5 14.5t-15.5 36.5t15.5 37z" />
    <glyph glyph-name="adieresis.ss02" horiz-adv-x="523" 
d="M420.5 468.5q53.5 -47.5 53.5 -136.5v-332h-71l-7 80q-60 -86 -171 -86q-85 0 -136.5 40t-51.5 109q0 77 52.5 118t152.5 41h150v35q0 50 -33.5 78t-93.5 28q-53 0 -87.5 -23.5t-42.5 -62.5h-82q9 75 66.5 117t149.5 42q98 0 151.5 -47.5zM392 233h-158q-114 0 -114 -85
q0 -38 30 -61t81 -23q75 0 118 39.5t43 104.5v25zM136.5 678.5q14.5 14.5 37.5 14.5t38 -14.5t15 -37.5q0 -22 -15 -36.5t-38 -14.5q-22 0 -37 14.5t-15 36.5q0 23 14.5 37.5zM318.5 678q15.5 15 37.5 15t37 -14.5t15 -37.5q0 -22 -15 -36.5t-37 -14.5t-37.5 14.5
t-15.5 36.5t15.5 37z" />
    <glyph glyph-name="agrave.ss01" horiz-adv-x="596" 
d="M540 510v-510h-71l-11 82q-64 -88 -175 -88q-71 0 -126.5 31t-87 90t-31.5 140q0 77 31.5 136t87.5 92t126 33q61 0 105 -23t70 -63l11 80h71zM378.5 90.5q38.5 23.5 59.5 66t21 96.5q0 55 -21 98.5t-59.5 67.5t-87.5 24q-76 0 -122.5 -52.5t-46.5 -135.5t46.5 -135.5
t122.5 -52.5q49 0 87.5 23.5zM141 706h96l83 -136h-65z" />
    <glyph glyph-name="agrave.ss02" horiz-adv-x="523" 
d="M420.5 468.5q53.5 -47.5 53.5 -136.5v-332h-71l-7 80q-60 -86 -171 -86q-85 0 -136.5 40t-51.5 109q0 77 52.5 118t152.5 41h150v35q0 50 -33.5 78t-93.5 28q-53 0 -87.5 -23.5t-42.5 -62.5h-82q9 75 66.5 117t149.5 42q98 0 151.5 -47.5zM392 233h-158q-114 0 -114 -85
q0 -38 30 -61t81 -23q75 0 118 39.5t43 104.5v25zM117 706h96l83 -136h-65z" />
    <glyph glyph-name="amacron.ss01" horiz-adv-x="596" 
d="M540 510v-510h-71l-11 82q-64 -88 -175 -88q-71 0 -126.5 31t-87 90t-31.5 140q0 77 31.5 136t87.5 92t126 33q61 0 105 -23t70 -63l11 80h71zM378.5 90.5q38.5 23.5 59.5 66t21 96.5q0 55 -21 98.5t-59.5 67.5t-87.5 24q-76 0 -122.5 -52.5t-46.5 -135.5t46.5 -135.5
t122.5 -52.5q49 0 87.5 23.5zM152 613v62h275v-62h-275z" />
    <glyph glyph-name="amacron.ss02" horiz-adv-x="523" 
d="M420.5 468.5q53.5 -47.5 53.5 -136.5v-332h-71l-7 80q-60 -86 -171 -86q-85 0 -136.5 40t-51.5 109q0 77 52.5 118t152.5 41h150v35q0 50 -33.5 78t-93.5 28q-53 0 -87.5 -23.5t-42.5 -62.5h-82q9 75 66.5 117t149.5 42q98 0 151.5 -47.5zM392 233h-158q-114 0 -114 -85
q0 -38 30 -61t81 -23q75 0 118 39.5t43 104.5v25zM128 613v62h275v-62h-275z" />
    <glyph glyph-name="aogonek.ss01" horiz-adv-x="596" 
d="M546 -140v-60h-78q-46 0 -73.5 23t-27.5 62q0 38 26 68t74 64l-9 65q-64 -88 -175 -88q-71 0 -126.5 31t-87 90t-31.5 140q0 77 31.5 136t87.5 92t126 33q61 0 105 -23t70 -63l11 80h71v-510q-50 -27 -77 -51.5t-27 -51.5q0 -37 46 -37h64zM378.5 90.5q38.5 23.5 59.5 66
t21 96.5q0 55 -21 98.5t-59.5 67.5t-87.5 24q-76 0 -122.5 -52.5t-46.5 -135.5t46.5 -135.5t122.5 -52.5q49 0 87.5 23.5z" />
    <glyph glyph-name="aogonek.ss02" horiz-adv-x="523" 
d="M480 -140v-60h-78q-46 0 -73.5 23t-27.5 62q0 38 26.5 68.5t74.5 63.5l-6 63q-60 -86 -171 -86q-85 0 -136.5 40t-51.5 109q0 77 52.5 118t152.5 41h150v35q0 50 -33.5 78t-93.5 28q-53 0 -87.5 -23.5t-42.5 -62.5h-82q9 75 66.5 117t149.5 42q98 0 151.5 -47.5
t53.5 -136.5v-332q-50 -27 -77 -51.5t-27 -51.5q0 -37 46 -37h64zM392 233h-158q-114 0 -114 -85q0 -38 30 -61t81 -23q75 0 118 39.5t43 104.5v25z" />
    <glyph glyph-name="aring.ss01" horiz-adv-x="596" 
d="M540 510v-510h-71l-11 82q-64 -88 -175 -88q-71 0 -126.5 31t-87 90t-31.5 140q0 77 31.5 136t87.5 92t126 33q61 0 105 -23t70 -63l11 80h71zM378.5 90.5q38.5 23.5 59.5 66t21 96.5q0 55 -21 98.5t-59.5 67.5t-87.5 24q-76 0 -122.5 -52.5t-46.5 -135.5t46.5 -135.5
t122.5 -52.5q49 0 87.5 23.5zM206.5 747.5q33.5 32.5 82.5 32.5t82.5 -32.5t33.5 -78.5q0 -47 -33.5 -79.5t-82.5 -32.5t-82.5 32.5t-33.5 79.5q0 46 33.5 78.5zM333.5 715q-18.5 18 -44.5 18q-27 0 -45 -18t-18 -46t18 -46.5t45 -18.5t45 18.5t18 46.5t-18.5 46z" />
    <glyph glyph-name="aring.ss02" horiz-adv-x="523" 
d="M420.5 468.5q53.5 -47.5 53.5 -136.5v-332h-71l-7 80q-60 -86 -171 -86q-85 0 -136.5 40t-51.5 109q0 77 52.5 118t152.5 41h150v35q0 50 -33.5 78t-93.5 28q-53 0 -87.5 -23.5t-42.5 -62.5h-82q9 75 66.5 117t149.5 42q98 0 151.5 -47.5zM392 233h-158q-114 0 -114 -85
q0 -38 30 -61t81 -23q75 0 118 39.5t43 104.5v25zM182.5 747.5q33.5 32.5 82.5 32.5t82.5 -32.5t33.5 -78.5q0 -47 -33.5 -79.5t-82.5 -32.5t-82.5 32.5t-33.5 79.5q0 46 33.5 78.5zM309.5 715q-18.5 18 -44.5 18q-27 0 -45 -18t-18 -46t18 -46.5t45 -18.5t45 18.5t18 46.5
t-18.5 46z" />
    <glyph glyph-name="atilde.ss01" horiz-adv-x="596" 
d="M540 510v-510h-71l-11 82q-64 -88 -175 -88q-71 0 -126.5 31t-87 90t-31.5 140q0 77 31.5 136t87.5 92t126 33q61 0 105 -23t70 -63l11 80h71zM378.5 90.5q38.5 23.5 59.5 66t21 96.5q0 55 -21 98.5t-59.5 67.5t-87.5 24q-76 0 -122.5 -52.5t-46.5 -135.5t46.5 -135.5
t122.5 -52.5q49 0 87.5 23.5zM207.5 633q-9.5 -14 -9.5 -35h-52v12q0 40 23.5 66t62.5 26q25 0 40.5 -8.5t31.5 -23.5q12 -11 20.5 -16.5t19.5 -5.5q17 0 26 14t9 35h52v-12q0 -40 -23.5 -66t-61.5 -26q-25 0 -40 8t-32 24q-11 11 -19.5 16.5t-20.5 5.5q-17 0 -26.5 -14z
" />
    <glyph glyph-name="atilde.ss02" horiz-adv-x="523" 
d="M420.5 468.5q53.5 -47.5 53.5 -136.5v-332h-71l-7 80q-60 -86 -171 -86q-85 0 -136.5 40t-51.5 109q0 77 52.5 118t152.5 41h150v35q0 50 -33.5 78t-93.5 28q-53 0 -87.5 -23.5t-42.5 -62.5h-82q9 75 66.5 117t149.5 42q98 0 151.5 -47.5zM392 233h-158q-114 0 -114 -85
q0 -38 30 -61t81 -23q75 0 118 39.5t43 104.5v25zM183.5 633q-9.5 -14 -9.5 -35h-52v12q0 40 23.5 66t62.5 26q25 0 40.5 -8.5t31.5 -23.5q12 -11 20.5 -16.5t19.5 -5.5q17 0 26 14t9 35h52v-12q0 -40 -23.5 -66t-61.5 -26q-25 0 -40 8t-32 24q-11 11 -19.5 16.5t-20.5 5.5
q-17 0 -26.5 -14z" />
    <glyph glyph-name="f.calt" horiz-adv-x="281" 
d="M87.5 667.5q31.5 32.5 101.5 32.5h94v-75h-89q-30 0 -43 -13t-13 -43v-59h144v-75h-144v-435h-82v567q0 68 31.5 100.5z" />
    <glyph glyph-name="i.ss03" horiz-adv-x="222" 
d="M163 692q15 -15 15 -38t-15 -38t-38 -15t-38 15t-15 38t15 38t38 15t38 -15zM84 435h-81v75h163v-510h-82v435z" />
    <glyph glyph-name="dotlessi.ss03" horiz-adv-x="222" 
d="M3 510h163v-510h-82v435h-81v75z" />
    <glyph glyph-name="iacute.ss03" horiz-adv-x="222" 
d="M3 510h163v-510h-82v435h-81v75zM91 571l85 135h96l-117 -135h-64z" />
    <glyph glyph-name="ibreve.ss03" horiz-adv-x="222" 
d="M3 510h163v-510h-82v435h-81v75zM48 706q0 -33 20 -53.5t52 -20.5t53 20.5t21 53.5h65q-1 -62 -40 -99.5t-100 -37.5q-60 0 -97.5 37t-38.5 100h65z" />
    <glyph glyph-name="icircumflex.ss03" horiz-adv-x="222" 
d="M3 510h163v-510h-82v435h-81v75zM121 652l-87 -82h-78l126 136h78l126 -136h-79z" />
    <glyph glyph-name="idieresis.ss03" horiz-adv-x="222" 
d="M3 510h163v-510h-82v435h-81v75zM-7.5 678.5q14.5 14.5 37.5 14.5t38 -14.5t15 -37.5q0 -22 -15 -36.5t-38 -14.5q-22 0 -37 14.5t-15 36.5q0 23 14.5 37.5zM174.5 678q15.5 15 37.5 15t37 -14.5t15 -37.5q0 -22 -15 -36.5t-37 -14.5t-37.5 14.5t-15.5 36.5t15.5 37z" />
    <glyph glyph-name="i.loclTRK" horiz-adv-x="194" 
d="M56 510h82v-510h-82v510zM60.5 694q14.5 14 37.5 14t37.5 -14t14.5 -36t-14.5 -36.5t-37.5 -14.5t-37.5 14.5t-14.5 36.5t14.5 36z" />
    <glyph glyph-name="i.loclTRK.ss03" horiz-adv-x="222" 
d="M3 510h163v-510h-82v435h-81v75zM83.5 694q14.5 14 37.5 14t37.5 -14t14.5 -36t-14.5 -36.5t-37.5 -14.5t-37.5 14.5t-14.5 36.5t14.5 36z" />
    <glyph glyph-name="igrave.ss03" horiz-adv-x="222" 
d="M3 510h163v-510h-82v435h-81v75zM-27 706h96l83 -136h-65z" />
    <glyph glyph-name="ij.ss03" horiz-adv-x="419" 
d="M135 692q15 -15 15 -38t-15 -38t-38 -15t-38 15t-15 38t15 38t38 15t38 -15zM56 510h82v-510h-82v510zM284 692q15 15 38 15t38 -15t15 -38t-15 -38t-38 -15t-38 15t-15 38t15 38zM225 -125q30 0 43 13t13 43v504h-81v75h163v-577q0 -68 -31.5 -100.5t-101.5 -32.5h-84
v75h79z" />
    <glyph glyph-name="ij.ss04" horiz-adv-x="388" 
d="M135 692q15 -15 15 -38t-15 -38t-38 -15t-38 15t-15 38t15 38t38 15t38 -15zM56 510h82v-510h-82v510zM253 692q15 15 38 15t38 -15t15 -38t-15 -38t-38 -15t-38 15t-15 38t15 38zM250 510h82v-710h-82v710z" />
    <glyph glyph-name="imacron.ss01" horiz-adv-x="222" 
d="M3 510h163v-510h-82v435h-81v75zM-16 613v62h275v-62h-275z" />
    <glyph glyph-name="iogonek.ss03" horiz-adv-x="222" 
d="M87 616q-15 15 -15 38t15 38t38 15t38 -15t15 -38t-15 -38t-38 -15t-38 15zM109 -140h64v-60h-78q-46 0 -73.5 23t-27.5 62q0 36 23.5 65t66.5 60v425h-81v75h163v-510h1q-50 -27 -77 -51.5t-27 -51.5q0 -37 46 -37z" />
    <glyph glyph-name="itilde.ss03" horiz-adv-x="222" 
d="M3 510h163v-510h-82v435h-81v75zM39.5 633q-9.5 -14 -9.5 -35h-52v12q0 40 23.5 66t62.5 26q25 0 40.5 -8.5t31.5 -23.5q12 -11 20.5 -16.5t19.5 -5.5q17 0 26 14t9 35h52v-12q0 -40 -23.5 -66t-61.5 -26q-25 0 -40 8t-32 24q-11 11 -19.5 16.5t-20.5 5.5
q-17 0 -26.5 -14z" />
    <glyph glyph-name="j.short" horiz-adv-x="200" 
d="M65 692q15 15 38 15t38 -15t15 -38t-15 -38t-38 -15t-38 15t-15 38t15 38zM6 -125q30 0 43 13t13 43v579h82v-577q0 -68 -31.5 -100.5t-101.5 -32.5h-34v75h29z" />
    <glyph glyph-name="j.ss03" horiz-adv-x="225" 
d="M90 692q15 15 38 15t38 -15t15 -38t-15 -38t-38 -15t-38 15t-15 38t15 38zM31 -125q30 0 43 13t13 43v504h-81v75h163v-577q0 -68 -31.5 -100.5t-101.5 -32.5h-84v75h79z" />
    <glyph glyph-name="j.ss04" horiz-adv-x="194" 
d="M59 692q15 15 38 15t38 -15t15 -38t-15 -38t-38 -15t-38 15t-15 38t15 38zM56 510h82v-710h-82v710z" />
    <glyph glyph-name="uni0237.short" horiz-adv-x="200" 
d="M6 -125q30 0 43 13t13 43v579h82v-577q0 -68 -31.5 -100.5t-101.5 -32.5h-34v75h29z" />
    <glyph glyph-name="uni0237.ss03" horiz-adv-x="225" 
d="M31 -125q30 0 43 13t13 43v504h-81v75h163v-577q0 -68 -31.5 -100.5t-101.5 -32.5h-84v75h79z" />
    <glyph glyph-name="uni0237.ss04" horiz-adv-x="194" 
d="M56 510h82v-710h-82v710z" />
    <glyph glyph-name="jcircumflex.short" horiz-adv-x="200" 
d="M6 -125q30 0 43 13t13 43v579h82v-577q0 -68 -31.5 -100.5t-101.5 -32.5h-34v75h29zM104 652l-87 -82h-78l126 136h78l126 -136h-79z" />
    <glyph glyph-name="jcircumflex.ss03" horiz-adv-x="225" 
d="M31 -125q30 0 43 13t13 43v504h-81v75h163v-577q0 -68 -31.5 -100.5t-101.5 -32.5h-84v75h79zM129 652l-87 -82h-78l126 136h78l126 -136h-79z" />
    <glyph glyph-name="jcircumflex.ss04" horiz-adv-x="194" 
d="M56 510h82v-710h-82v710zM98 652l-87 -82h-78l126 136h78l126 -136h-79z" />
    <glyph glyph-name="t.calt" horiz-adv-x="285" 
d="M56 653h82v-143h129v-75h-129v-301q0 -32 12.5 -45.5t43.5 -13.5h89v-75h-94q-72 0 -102.5 32t-30.5 101v520z" />
    <glyph glyph-name="t.ss05" horiz-adv-x="309" 
d="M-2 510h93v143h82v-143h126v-75h-126v-435h-82v435h-93v75z" />
    <glyph glyph-name="tbar.calt" horiz-adv-x="285" 
d="M138 435v-120h129v-70h-129v-111q0 -32 12.5 -45.5t43.5 -13.5h89v-75h-94q-72 0 -102.5 32t-30.5 101v520h82v-143h129v-75h-129z" />
    <glyph glyph-name="tbar.ss05" horiz-adv-x="326" 
d="M304 435h-126v-128h126v-70h-126v-237h-82v237h-94v70h94v128h-94v75h94v143h82v-143h126v-75z" />
    <glyph glyph-name="tcaron.calt" horiz-adv-x="285" 
d="M56 653h82v-143h129v-75h-129v-301q0 -32 12.5 -45.5t43.5 -13.5h89v-75h-94q-72 0 -102.5 32t-30.5 101v520zM227 713h77l-58 -146h-59z" />
    <glyph glyph-name="tcaron.ss05" horiz-adv-x="309" 
d="M-2 510h93v143h82v-143h126v-75h-126v-435h-82v435h-93v75zM263 708h77l-58 -146h-59z" />
    <glyph glyph-name="uni0163.calt" horiz-adv-x="285" 
d="M56 653h82v-143h129v-75h-129v-301q0 -32 12.5 -45.5t43.5 -13.5h89v-75h-94q-72 0 -102.5 32t-30.5 101v520zM126 -51h80l-70 -143h-59z" />
    <glyph glyph-name="uni0163.ss05" horiz-adv-x="309" 
d="M-2 510h93v143h82v-143h126v-75h-126v-435h-82v435h-93v75zM90 -51h80l-70 -143h-59z" />
    <glyph glyph-name="uni021B.calt" horiz-adv-x="285" 
d="M56 653h82v-143h129v-75h-129v-301q0 -32 12.5 -45.5t43.5 -13.5h89v-75h-94q-72 0 -102.5 32t-30.5 101v520zM126 -51h80l-70 -143h-59z" />
    <glyph glyph-name="uni021B.ss05" horiz-adv-x="309" 
d="M-2 510h93v143h82v-143h126v-75h-126v-435h-82v435h-93v75zM90 -51h80l-70 -143h-59z" />
    <glyph glyph-name="y.ss01" horiz-adv-x="551" 
d="M495 510v-501q0 -99 -57.5 -157t-173.5 -58q-93 0 -150 43.5t-65 124.5h84q10 -46 45.5 -70.5t92.5 -24.5q68 0 105 36.5t37 105.5v74q-26 -40 -63.5 -63t-95.5 -23q-91 0 -147 54.5t-56 170.5v288h82v-283q0 -75 35 -115t100 -40q67 0 106 49t39 134v255h82z" />
    <glyph glyph-name="yacute.ss01" horiz-adv-x="551" 
d="M495 510v-501q0 -99 -57.5 -157t-173.5 -58q-93 0 -150 43.5t-65 124.5h84q10 -46 45.5 -70.5t92.5 -24.5q68 0 105 36.5t37 105.5v74q-26 -40 -63.5 -63t-95.5 -23q-91 0 -147 54.5t-56 170.5v288h82v-283q0 -75 35 -115t100 -40q67 0 106 49t39 134v255h82zM243 571
l85 135h96l-117 -135h-64z" />
    <glyph glyph-name="ycircumflex.ss01" horiz-adv-x="551" 
d="M495 510v-501q0 -99 -57.5 -157t-173.5 -58q-93 0 -150 43.5t-65 124.5h84q10 -46 45.5 -70.5t92.5 -24.5q68 0 105 36.5t37 105.5v74q-26 -40 -63.5 -63t-95.5 -23q-91 0 -147 54.5t-56 170.5v288h82v-283q0 -75 35 -115t100 -40q67 0 106 49t39 134v255h82zM273 652
l-87 -82h-78l126 136h78l126 -136h-79z" />
    <glyph glyph-name="ydieresis.ss01" horiz-adv-x="551" 
d="M495 510v-501q0 -99 -57.5 -157t-173.5 -58q-93 0 -150 43.5t-65 124.5h84q10 -46 45.5 -70.5t92.5 -24.5q68 0 105 36.5t37 105.5v74q-26 -40 -63.5 -63t-95.5 -23q-91 0 -147 54.5t-56 170.5v288h82v-283q0 -75 35 -115t100 -40q67 0 106 49t39 134v255h82z
M144.5 678.5q14.5 14.5 37.5 14.5t38 -14.5t15 -37.5q0 -22 -15 -36.5t-38 -14.5q-22 0 -37 14.5t-15 36.5q0 23 14.5 37.5zM326.5 678q15.5 15 37.5 15t37 -14.5t15 -37.5q0 -22 -15 -36.5t-37 -14.5t-37.5 14.5t-15.5 36.5t15.5 37z" />
    <glyph glyph-name="ygrave.ss01" horiz-adv-x="551" 
d="M495 510v-501q0 -99 -57.5 -157t-173.5 -58q-93 0 -150 43.5t-65 124.5h84q10 -46 45.5 -70.5t92.5 -24.5q68 0 105 36.5t37 105.5v74q-26 -40 -63.5 -63t-95.5 -23q-91 0 -147 54.5t-56 170.5v288h82v-283q0 -75 35 -115t100 -40q67 0 106 49t39 134v255h82zM125 706h96
l83 -136h-65z" />
    <glyph glyph-name="w_w_w" horiz-adv-x="2149" 
d="M2058 510h83l-170 -510h-90l-123 379l-128 -379l-90 -1l-125 386l-128 -385h-90l-123 379l-128 -379l-90 -1l-124 385l-128 -384h-90l-123 379l-128 -379l-90 -1l-165 511h86l127 -415l134 415h76l127 -415l133 415h86l127 -415l134 415h76l127 -415l133 415h87l127 -415
l134 415h76l127 -415z" />
    <glyph glyph-name="zero.osf" horiz-adv-x="616" 
d="M76.5 388.5q34.5 59.5 95.5 93.5t136 34t136 -34t95.5 -93.5t34.5 -133.5t-34.5 -134t-95 -93.5t-136.5 -33.5t-136.5 33.5t-95 93.5t-34.5 134t34.5 133.5zM467 350q-24 43 -66 68t-93 25t-93 -25t-66 -68t-24 -95t24 -95t66 -68t93 -25t93 25t66 68t24 95t-24 95z" />
    <glyph glyph-name="one.osf" horiz-adv-x="292" 
d="M99 389q23 0 35.5 16.5t12.5 42.5v62h81v-510h-83v324q-17 -10 -47 -10h-93v75h94z" />
    <glyph glyph-name="two.osf" horiz-adv-x="507" 
d="M471 72v-72h-436v68l227 136q60 36 87.5 65t27.5 71q0 46 -35 74.5t-92 28.5q-58 0 -94.5 -33.5t-36.5 -88.5v-14h-83v14q0 55 26.5 99.5t75.5 70t114 25.5q62 0 109.5 -22t73.5 -61.5t26 -90.5q0 -52 -32 -91.5t-95 -76.5l-173 -102h310z" />
    <glyph glyph-name="three.osf" horiz-adv-x="566" 
d="M484.5 119.5q40.5 -40.5 40.5 -110.5q0 -58 -31 -102t-87 -68.5t-129 -24.5q-114 0 -180.5 59t-67.5 161h82q1 -71 46 -109t120 -38q70 0 116.5 35t46.5 92q0 54 -44.5 84t-120.5 30h-55v75h51q69 0 110.5 33.5t41.5 84.5q0 55 -40.5 88t-104.5 33q-67 0 -108 -37.5
t-43 -98.5h-82q0 62 30 109.5t83 73.5t121 26q69 0 121 -23.5t79.5 -65t27.5 -95.5q0 -63 -36 -105t-99 -56q71 -10 111.5 -50.5z" />
    <glyph glyph-name="four.osf" horiz-adv-x="588" 
d="M361 510h102v-435h109v-75h-109v-180h-80v180h-360v75zM383 424l-270 -349h270v349z" />
    <glyph glyph-name="five.osf" horiz-adv-x="580" 
d="M431 249q51 -30 79.5 -83t28.5 -120q0 -74 -32.5 -126.5t-87.5 -79t-122 -26.5q-72 0 -125.5 28.5t-83.5 77.5t-34 108h83q6 -60 49 -100.5t111 -40.5q43 0 79.5 19t57.5 55.5t21 85.5q0 69 -43.5 114t-114.5 45q-53 0 -92 -25t-59 -71l-81 2l23 398h408v-77h-335
l-16 -230q24 36 69 56t101 20q65 0 116 -30z" />
    <glyph glyph-name="six.osf" horiz-adv-x="590" 
d="M466.5 642.5q59.5 -51.5 72.5 -140.5h-82q-13 55 -50.5 87t-98.5 32q-93 0 -141 -69.5t-48 -190.5q0 -20 1 -34q4 14 9 24q25 49 77 75t118 26q67 0 117.5 -29t77.5 -80.5t27 -118.5q0 -68 -30.5 -120t-85.5 -81t-125 -29q-134 0 -202 111q-28 44 -43.5 106.5
t-15.5 132.5q0 163 68 256.5t198 93.5q97 0 156.5 -51.5zM196 339q-45 -41 -45 -107q0 -74 42 -120t114 -46q70 0 113 44t43 113q0 70 -41.5 113.5t-111.5 43.5q-69 0 -114 -41z" />
    <glyph glyph-name="seven.osf" horiz-adv-x="511" 
d="M16 510h469v-72l-321 -618h-91l320 615h-377v75z" />
    <glyph glyph-name="eight.osf" horiz-adv-x="587" 
d="M504 299.5q41 -44.5 41 -114.5q0 -56 -30.5 -99.5t-87 -67.5t-133.5 -24q-78 0 -134.5 24t-87 67.5t-30.5 99.5q0 69 40.5 112.5t103.5 58.5q-54 16 -89 56t-35 101q0 53 28.5 94t81 64t122.5 23t122 -23t80.5 -64t28.5 -94q0 -58 -36 -98.5t-89 -56.5q63 -14 104 -58.5z
M187 427q42 -33 107 -33t106.5 33t41.5 85t-41.5 84.5t-106.5 32.5t-107 -32.5t-42 -84.5t42 -85zM379 77q38 17 60 47t22 67t-22 66.5t-60 46.5t-85 17q-48 0 -86.5 -17t-60 -46.5t-21.5 -66.5t21.5 -67t60 -47t86.5 -17q47 0 85 17z" />
    <glyph glyph-name="nine.osf" horiz-adv-x="590" 
d="M530.5 298.5q15.5 -62.5 15.5 -132.5q0 -163 -68 -257.5t-198 -94.5q-97 0 -156.5 51.5t-72.5 140.5h82q13 -55 50.5 -87t98.5 -32q94 0 142.5 71t48.5 193q0 6 -2 34q-3 -9 -13 -29q-24 -50 -75 -74t-117 -24q-67 0 -117.5 29t-77.5 80.5t-27 118.5q0 68 30.5 120
t85.5 81t125 29q134 0 202 -111q28 -44 43.5 -106.5zM168.5 173.5q41.5 -43.5 111.5 -43.5q71 0 115 43.5t44 112.5q0 70 -43 114t-113 44t-113 -44t-43 -113q0 -70 41.5 -113.5z" />
    <glyph glyph-name="one.osf.ss08" 
d="M547 69v-69h-464v69h189v260q-18 -12 -47 -12h-125v67h126q23 0 35.5 16t12.5 42v67h81v-440h192z" />
    <glyph glyph-name="seven.osf.ss08" horiz-adv-x="540" 
d="M36 510h478v-72l-321 -618h-91l320 614h-314v-125h-72v201z" />
    <glyph glyph-name="four.osf.ss09" horiz-adv-x="530" 
d="M361 510h106v-690h-83v180h-361v75zM384 424l-271 -349h271v349z" />
    <glyph glyph-name="zero.osf.zero" horiz-adv-x="616" 
d="M444 482q61 -34 95.5 -93.5t34.5 -133.5t-34.5 -134t-95 -93.5t-136.5 -33.5t-136.5 33.5t-95 93.5t-34.5 134t34.5 133.5t95.5 93.5t136 34t136 -34zM215 418q-42 -25 -66 -68t-24 -95q0 -61 33 -110l258 263q-48 35 -108 35q-51 0 -93 -25zM401 92q42 25 66 68t24 95
q0 62 -34 112l-257 -265q48 -35 108 -35q51 0 93 25z" />
    <glyph glyph-name="one.ss08" horiz-adv-x="521" 
d="M495 77v-77h-457v76h190v415q-14 -10 -38 -10h-124v75h115q23 0 35.5 16.5t12.5 43.5v84h82v-623h184z" />
    <glyph glyph-name="seven.ss08" horiz-adv-x="554" 
d="M529 700v-59l-337 -641h-89l336 623h-327v-124h-71v201h488z" />
    <glyph glyph-name="four.ss09" horiz-adv-x="562" 
d="M375 700h107v-700h-84v170h-374v78zM398 613l-283 -365h283v365z" />
    <glyph glyph-name="zero.tf" 
d="M45 367q0 99 31 176.5t89 120.5t135 43t135 -43t89 -120.5t31 -176.5v-32q0 -99 -31 -176.5t-89 -120.5t-135 -43t-135 43t-89 120.5t-31 176.5v32zM472 364q0 79 -20.5 139.5t-59.5 94.5t-92 34t-92 -34t-59.5 -94.5t-20.5 -139.5v-26q0 -78 20.5 -138.5t59.5 -94.5
t92 -34t92 34t59.5 94.5t20.5 138.5v26z" />
    <glyph glyph-name="one.tf" 
d="M542 77v-77h-457v76h190v415q-14 -10 -38 -10h-124v75h115q23 0 35.5 16.5t12.5 43.5v84h82v-623h184z" />
    <glyph glyph-name="two.tf" 
d="M322 307q59 51 89 92.5t30 93.5q0 65 -41.5 102t-111.5 37q-68 0 -109 -42t-41 -114v-13h-84v18q0 66 29 117t82.5 80t122.5 29q112 0 175.5 -57t63.5 -153q0 -50 -19.5 -91t-50.5 -74.5t-81 -76.5l-210 -178h366v-77h-482v71z" />
    <glyph glyph-name="three.tf" 
d="M509 305.5q43 -43.5 43 -111.5q0 -59 -31.5 -104.5t-89.5 -70.5t-134 -25q-116 0 -185 59.5t-69 162.5h86q1 -68 48.5 -107.5t124.5 -39.5q71 0 117.5 36t46.5 95q0 56 -45 88t-127 32h-60v73h55q77 0 118 34t41 89q0 53 -41.5 84t-106.5 31q-68 0 -110.5 -34.5
t-43.5 -93.5h-84q1 95 65 149t170 54q72 0 126 -23t82.5 -65t28.5 -97q0 -64 -35 -106t-95 -54q62 -12 105 -55.5z" />
    <glyph glyph-name="four.tf" 
d="M19 246l351 454h100v-452h113v-77h-113v-171h-84v171h-367v75zM109 248h277v358z" />
    <glyph glyph-name="five.tf" 
d="M443 439q52 -30 81 -83t29 -122q0 -75 -33 -129t-89 -82t-123 -28q-76 0 -132 29.5t-86.5 80.5t-34.5 113h84q6 -63 51.5 -105.5t117.5 -42.5q42 0 78.5 18.5t58.5 55.5t22 89q0 72 -43 117t-115 45q-47 0 -93 -20t-66 -75l-81 2l23 398h416v-77h-339l-16 -230
q31 40 77.5 58t94.5 18q66 0 118 -30z" />
    <glyph glyph-name="six.tf" 
d="M57.5 217q-14.5 61 -14.5 130q0 110 31.5 191t91.5 124.5t143 43.5q95 0 156.5 -52.5t74.5 -140.5h-84q-12 55 -50.5 87t-100.5 32q-90 0 -139.5 -74t-49.5 -195l1 -34q3 13 6 19q24 53 75 84t120 31t122 -29t83 -82t30 -123q0 -67 -31 -120.5t-86 -84t-126 -30.5
t-124.5 30.5t-87.5 85.5q-26 46 -40.5 107zM426.5 344.5q-42.5 44.5 -114.5 44.5q-73 0 -118 -45t-45 -117q0 -71 44 -115t116 -44t116 45t44 116t-42.5 115.5z" />
    <glyph glyph-name="seven.tf" horiz-adv-x="601" 
d="M54 700h494v-59l-344 -641h-91l343 623h-402v77z" />
    <glyph glyph-name="eight.tf" 
d="M510 303.5q43 -45.5 43 -115.5q0 -57 -30.5 -101t-88 -68.5t-134.5 -24.5t-134.5 24.5t-88 68.5t-30.5 101q0 69 43 114.5t112 60.5q-59 12 -97 54.5t-38 103.5q0 55 28.5 97t81.5 65.5t123 23.5t123 -23.5t81.5 -65.5t28.5 -97q0 -60 -38 -103.5t-97 -54.5
q69 -14 112 -59.5zM192 436.5q42 -32.5 108 -32.5t108 32.5t42 84.5q0 51 -42 83.5t-108 32.5t-108 -32.5t-42 -83.5q0 -52 42 -84.5zM421.5 99q47.5 36 47.5 92q0 37 -22 67t-60.5 47t-86.5 17t-86.5 -17t-60.5 -47t-22 -67q0 -56 48 -92t121 -36q74 0 121.5 36z" />
    <glyph glyph-name="nine.tf" 
d="M539.5 483q14.5 -61 14.5 -130q0 -110 -31.5 -191t-91.5 -124.5t-143 -43.5q-95 0 -156.5 52.5t-74.5 140.5h84q12 -55 50.5 -87t100.5 -32q90 0 139.5 74t49.5 195l-1 34q-3 -13 -6 -19q-24 -53 -75 -84t-120 -31t-122 29t-83 82t-30 123q0 67 31 120.5t86 84t126 30.5
t124.5 -30.5t87.5 -85.5q26 -46 40.5 -107zM170.5 355.5q42.5 -44.5 114.5 -44.5q73 0 118 45t45 117q0 71 -44 115t-116 44t-116 -45t-44 -116t42.5 -115.5z" />
    <glyph glyph-name="seven.tf.ss08" 
d="M547 700v-59l-337 -641h-89l336 623h-327v-124h-71v201h488z" />
    <glyph glyph-name="four.tf.ss09" 
d="M394 700h107v-700h-84v170h-374v78zM417 613l-283 -365h283v365z" />
    <glyph glyph-name="zero.tf.zero" 
d="M435 664q58 -43 89 -120.5t31 -176.5v-32q0 -99 -31 -176.5t-89 -120.5t-135 -43t-135 43t-89 120.5t-31 176.5v32q0 99 31 176.5t89 120.5t135 43t135 -43zM128 338q0 -60 12 -110l298 309q-23 45 -58 70t-80 25q-53 0 -92 -34t-59.5 -94.5t-20.5 -139.5v-26zM472 364
q0 57 -10 101l-295 -308q23 -41 56.5 -63.5t76.5 -22.5q53 0 92 34t59.5 94.5t20.5 138.5v26z" />
    <glyph glyph-name="zero.tosf" 
d="M74 387.5q34 59.5 93 93.5t133 34t133 -34t93 -93.5t34 -133.5q0 -73 -34 -132.5t-93.5 -93.5t-132.5 -34t-132.5 34t-93.5 93.5t-34 132.5q0 74 34 133.5zM454 349q-23 43 -63.5 68t-90.5 25q-49 0 -89.5 -25t-64 -68t-23.5 -95t23.5 -95t64 -67.5t89.5 -24.5
q50 0 90.5 24.5t63.5 67.5t23 95t-23 95z" />
    <glyph glyph-name="one.tosf" 
d="M547 69v-69h-464v69h189v260q-18 -12 -47 -12h-125v67h126q23 0 35.5 16t12.5 42v67h81v-440h192z" />
    <glyph glyph-name="two.tosf" 
d="M523 72v-72h-436v68l227 136q60 36 87.5 65t27.5 71q0 46 -35 74.5t-92 28.5q-58 0 -94.5 -33.5t-36.5 -88.5v-14h-83v14q0 55 26.5 99.5t75.5 70t114 25.5q62 0 109.5 -22t73.5 -61.5t26 -90.5q0 -52 -32 -91.5t-95 -76.5l-173 -102h310z" />
    <glyph glyph-name="three.tosf" 
d="M506 115.5q43 -43.5 43 -111.5q0 -59 -31.5 -104.5t-89.5 -70.5t-134 -25q-116 0 -185 59.5t-69 162.5h86q1 -68 48.5 -107.5t124.5 -39.5q71 0 117.5 36t46.5 95q0 56 -45 88t-127 32h-60v73h55q77 0 118 34t41 89q0 53 -41.5 84t-106.5 31q-68 0 -110.5 -34.5
t-43.5 -93.5h-84q1 95 65 149t170 54q72 0 126 -23t82.5 -65t28.5 -97q0 -64 -35 -106t-95 -54q62 -12 105 -55.5z" />
    <glyph glyph-name="four.tosf" 
d="M361 510h102v-435h109v-75h-109v-180h-80v180h-360v75zM383 424l-270 -349h270v349z" />
    <glyph glyph-name="five.tosf" 
d="M438 250q51 -30 79.5 -83t28.5 -120q0 -74 -32.5 -126.5t-87.5 -79t-122 -26.5q-72 0 -125.5 28.5t-83.5 77.5t-34 108h83q6 -60 49 -100.5t111 -40.5q43 0 79.5 19t57.5 55.5t21 85.5q0 69 -43.5 114t-114.5 45q-53 0 -92 -25t-59 -71l-81 2l23 398h408v-77h-335
l-16 -230q24 36 69 56t101 20q65 0 116 -30z" />
    <glyph glyph-name="six.tosf" 
d="M471.5 642.5q59.5 -51.5 72.5 -140.5h-82q-13 55 -50.5 87t-98.5 32q-93 0 -141 -69.5t-48 -190.5q0 -20 1 -34q4 14 9 24q25 49 77 75t118 26q67 0 117.5 -29t77.5 -80.5t27 -118.5q0 -68 -30.5 -120t-85.5 -81t-125 -29q-134 0 -202 111q-28 44 -43.5 106.5
t-15.5 132.5q0 163 68 256.5t198 93.5q97 0 156.5 -51.5zM201 339q-45 -41 -45 -107q0 -74 42 -120t114 -46q70 0 113 44t43 113q0 70 -41.5 113.5t-111.5 43.5q-69 0 -114 -41z" />
    <glyph glyph-name="seven.tosf" 
d="M54 510h469v-72l-321 -618h-91l320 615h-377v75z" />
    <glyph glyph-name="eight.tosf" 
d="M511 299.5q41 -44.5 41 -114.5q0 -56 -30.5 -99.5t-87 -67.5t-133.5 -24q-78 0 -134.5 24t-87 67.5t-30.5 99.5q0 69 40.5 112.5t103.5 58.5q-54 16 -89 56t-35 101q0 53 28.5 94t81 64t122.5 23t122 -23t80.5 -64t28.5 -94q0 -58 -36 -98.5t-89 -56.5q63 -14 104 -58.5z
M194 427q42 -33 107 -33t106.5 33t41.5 85t-41.5 84.5t-106.5 32.5t-107 -32.5t-42 -84.5t42 -85zM386 77q38 17 60 47t22 67t-22 66.5t-60 46.5t-85 17q-48 0 -86.5 -17t-60 -46.5t-21.5 -66.5t21.5 -67t60 -47t86.5 -17q47 0 85 17z" />
    <glyph glyph-name="nine.tosf" 
d="M535.5 298.5q15.5 -62.5 15.5 -132.5q0 -163 -68 -257.5t-198 -94.5q-97 0 -156.5 51.5t-72.5 140.5h82q13 -55 50.5 -87t98.5 -32q94 0 142.5 71t48.5 193q0 6 -2 34q-3 -9 -13 -29q-24 -50 -75 -74t-117 -24q-67 0 -117.5 29t-77.5 80.5t-27 118.5q0 68 30.5 120
t85.5 81t125 29q134 0 202 -111q28 -44 43.5 -106.5zM173.5 173.5q41.5 -43.5 111.5 -43.5q71 0 115 43.5t44 112.5q0 70 -43 114t-113 44t-113 -44t-43 -113q0 -70 41.5 -113.5z" />
    <glyph glyph-name="seven.tosf.ss08" 
d="M54 510h478v-72l-321 -618h-91l320 614h-314v-125h-72v201z" />
    <glyph glyph-name="four.tosf.ss09" 
d="M394 510h107v-700h-84v170h-374v78zM417 423l-283 -365h283v365z" />
    <glyph glyph-name="zero.tosf.zero" 
d="M433 481q59 -34 93 -93.5t34 -133.5q0 -73 -34 -132.5t-93.5 -93.5t-132.5 -34t-132.5 34t-93.5 93.5t-34 132.5q0 74 34 133.5t93 93.5t133 34t133 -34zM210.5 417q-40.5 -25 -64 -68t-23.5 -95q0 -59 30 -106l253 258q-45 36 -106 36q-49 0 -89.5 -25zM390.5 91.5
q40.5 24.5 63.5 67.5t23 95q0 63 -31 109l-253 -260q47 -36 107 -36q50 0 90.5 24.5z" />
    <glyph glyph-name="zero.zero" horiz-adv-x="625" 
d="M450.5 662.5q60.5 -43.5 94 -120.5t33.5 -176v-32q0 -103 -33.5 -180t-93.5 -118.5t-138 -41.5q-79 0 -139 41.5t-93.5 118.5t-33.5 180v32q0 99 33.5 176t94 120.5t138.5 43.5q77 0 137.5 -43.5zM132 337q0 -58 13 -112l307 319q-23 41 -59 63t-80 22q-54 0 -95 -32
t-63.5 -92t-22.5 -142v-26zM493 363q0 59 -13 113l-307 -320q24 -41 59.5 -63t80.5 -22q54 0 94.5 32t63 92t22.5 142v26z" />
    <glyph glyph-name="u1F10C.zero" horiz-adv-x="796" 
d="M216.5 662.5q-81.5 -46.5 -128 -128t-46.5 -181.5t46.5 -181.5t128 -128t181.5 -46.5t181.5 46.5t128 128t46.5 181.5t-46.5 181.5t-128 128t-181.5 46.5t-181.5 -46.5zM504 489q40 -52 40 -136t-40 -136t-106 -52q-67 0 -107 51.5t-40 136.5t40 136.5t107 51.5
q66 0 106 -52zM333.5 450q-23.5 -37 -23.5 -97q0 -33 7 -58l145 154q-24 38 -64 38q-41 0 -64.5 -37zM461.5 257q23.5 37 23.5 96q0 33 -7 57l-144 -154q23 -36 64 -36q40 0 63.5 37z" />
    <glyph glyph-name="u1F10B.zero" horiz-adv-x="802" 
d="M584 659.5q82 -46.5 129 -128t47 -181.5t-47 -181.5t-129 -128t-183 -46.5t-183.5 46.5t-129 128t-46.5 181.5t46.5 181.5t129 128t183.5 46.5t183 -46.5zM248 614.5q-68 -39.5 -107 -109t-39 -155.5t39 -155.5t107 -109t153 -39.5t153 39.5t107 109t39 155.5t-39 155.5
t-107 109t-153 39.5t-153 -39.5zM507 486q40 -52 40 -136t-40 -136t-106 -52q-67 0 -107 51.5t-40 136.5t40 136.5t107 51.5q66 0 106 -52zM336.5 447q-23.5 -37 -23.5 -97q0 -33 7 -58l145 154q-24 38 -64 38q-41 0 -64.5 -37zM464.5 254q23.5 37 23.5 96q0 33 -7 57
l-144 -154q23 -36 64 -36q40 0 63.5 37z" />
    <glyph glyph-name="zero.dnom" horiz-adv-x="341" 
d="M64 318.5q40 51.5 107 51.5q66 0 106 -52t40 -136t-40 -136t-106 -52q-67 0 -107 51.5t-40 136.5t40 136.5zM234.5 278.5q-23.5 37.5 -63.5 37.5q-41 0 -64.5 -37t-23.5 -97q0 -59 23.5 -96t64.5 -37q40 0 63.5 37t23.5 96t-23.5 96.5z" />
    <glyph glyph-name="one.dnom" horiz-adv-x="180" 
d="M85 0v244q-7 -10 -20 -10h-65v55h65q9 0 15 8t6 20v47h55v-364h-56z" />
    <glyph glyph-name="two.dnom" horiz-adv-x="315" 
d="M26 244q0 57 37 91.5t93 34.5q60 0 96 -31.5t36 -82.5q0 -37 -18.5 -62.5t-53.5 -53.5l-106 -85h181v-55h-266v52l148 116q27 22 41.5 42t14.5 45q0 28 -20 44.5t-52 16.5q-34 0 -54.5 -19.5t-20.5 -54.5v-5h-56v7z" />
    <glyph glyph-name="three.dnom" horiz-adv-x="325" 
d="M66.5 340q34.5 30 94.5 30t95.5 -28t35.5 -74q0 -29 -17 -48.5t-43 -26.5q31 -6 49.5 -28t18.5 -56q0 -52 -38 -83.5t-102 -31.5q-66 0 -102 31.5t-37 89.5h57q1 -33 23 -50.5t60 -17.5q34 0 56.5 16.5t22.5 43.5t-23 43t-61 16h-22v41h23q34 0 55 15t21 40t-19.5 40
t-50.5 15q-34 0 -54 -16.5t-21 -44.5h-57q1 54 35.5 84z" />
    <glyph glyph-name="four.dnom" horiz-adv-x="340" 
d="M191 364h70v-221h59v-53h-59v-90h-56v90h-185v53zM205 304l-124 -161h124v161z" />
    <glyph glyph-name="five.dnom" horiz-adv-x="314" 
d="M269 312h-183l-7 -106q15 19 38 29t51 10q55 0 88.5 -34.5t33.5 -89.5q0 -57 -36.5 -92t-95.5 -35q-54 0 -90.5 30.5t-41.5 79.5h57q5 -26 25.5 -41.5t50.5 -15.5q31 0 51.5 21t20.5 53q0 33 -21 52.5t-55 19.5q-23 0 -41 -10.5t-29 -29.5h-53l10 211h227v-52z" />
    <glyph glyph-name="six.dnom" horiz-adv-x="323" 
d="M62.5 317q40.5 53 109.5 53q49 0 84 -28.5t42 -78.5h-55q-6 28 -25.5 44t-46.5 16q-42 0 -68 -36t-26 -94v-29q6 29 31.5 50t67.5 21q57 0 91 -33t34 -87q0 -55 -36 -88t-97 -33q-72 0 -109 49t-37 132q0 89 40.5 142zM222.5 168.5q-20.5 20.5 -54.5 20.5t-55 -20
t-21 -53t21 -53.5t55 -20.5t54.5 20t20.5 53t-20.5 53.5z" />
    <glyph glyph-name="seven.dnom" horiz-adv-x="300" 
d="M21 365h261v-49l-163 -316h-62l163 313l-199 -1v53z" />
    <glyph glyph-name="eight.dnom" horiz-adv-x="327" 
d="M42.5 155.5q19.5 24.5 51.5 33.5q-27 9 -43.5 30t-16.5 52q0 43 36.5 71t93.5 28q56 0 93 -28t37 -71q0 -31 -16 -51.5t-43 -30.5q31 -9 50 -33.5t19 -58.5q0 -45 -38 -74t-102 -29t-102.5 29t-38.5 74q0 34 19.5 58.5zM215.5 306.5q-20.5 16.5 -51.5 16.5t-51.5 -16.5
t-20.5 -41.5q0 -26 20.5 -41.5t51.5 -15.5q32 0 52 15.5t20 41.5q0 25 -20.5 41.5zM222.5 146q-23.5 18 -58.5 18t-58.5 -18t-23.5 -44t23.5 -43t58.5 -17t58.5 17t23.5 43t-23.5 44z" />
    <glyph glyph-name="nine.dnom" horiz-adv-x="323" 
d="M260.5 47q-40.5 -53 -109.5 -53q-49 0 -84 28.5t-42 78.5h55q6 -28 25.5 -44t46.5 -16q42 0 68 36t26 94v29q-6 -29 -31.5 -50t-67.5 -21q-57 0 -91 33t-34 87q0 55 36 88t97 33q72 0 109 -49t37 -132q0 -89 -40.5 -142zM100.5 195.5q20.5 -20.5 54.5 -20.5t55 20t21 53
t-21 53.5t-55 20.5t-54.5 -20t-20.5 -53t20.5 -53.5z" />
    <glyph glyph-name="zero.numr" horiz-adv-x="341" 
d="M64 655.5q40 51.5 107 51.5q66 0 106 -52t40 -136t-40 -136t-106 -52q-67 0 -107 51.5t-40 136.5t40 136.5zM234.5 615.5q-23.5 37.5 -63.5 37.5q-41 0 -64.5 -37t-23.5 -97q0 -59 23.5 -96t64.5 -37q40 0 63.5 37t23.5 96t-23.5 96.5z" />
    <glyph glyph-name="one.numr" horiz-adv-x="180" 
d="M85 337v244q-7 -10 -20 -10h-65v55h65q9 0 15 8t6 20v47h55v-364h-56z" />
    <glyph glyph-name="two.numr" horiz-adv-x="315" 
d="M26 580q0 57 37 91.5t93 34.5q60 0 96 -31.5t36 -82.5q0 -37 -18.5 -62.5t-53.5 -53.5l-106 -85h181v-55h-266v52l148 116q27 22 41.5 42t14.5 45q0 28 -20 44.5t-52 16.5q-34 0 -54.5 -19.5t-20.5 -54.5v-5h-56v7z" />
    <glyph glyph-name="three.numr" horiz-adv-x="325" 
d="M66.5 678q34.5 30 94.5 30t95.5 -28t35.5 -74q0 -29 -17 -48.5t-43 -26.5q31 -6 49.5 -28t18.5 -56q0 -52 -38 -83.5t-102 -31.5q-66 0 -102 31.5t-37 89.5h57q1 -33 23 -50.5t60 -17.5q34 0 56.5 16.5t22.5 43.5t-23 43t-61 16h-22v41h23q34 0 55 15t21 40t-19.5 40
t-50.5 15q-34 0 -54 -16.5t-21 -44.5h-57q1 54 35.5 84z" />
    <glyph glyph-name="four.numr" horiz-adv-x="340" 
d="M191 700h70v-221h59v-53h-59v-90h-56v90h-185v53zM205 640l-124 -161h124v161z" />
    <glyph glyph-name="five.numr" horiz-adv-x="314" 
d="M269 648h-183l-7 -106q15 19 38 29t51 10q55 0 88.5 -34.5t33.5 -89.5q0 -57 -36.5 -92t-95.5 -35q-54 0 -90.5 30.5t-41.5 79.5h57q5 -26 25.5 -41.5t50.5 -15.5q31 0 51.5 21t20.5 53q0 33 -21 52.5t-55 19.5q-23 0 -41 -10.5t-29 -29.5h-53l10 211h227v-52z" />
    <glyph glyph-name="six.numr" horiz-adv-x="323" 
d="M62.5 654q40.5 53 109.5 53q49 0 84 -28.5t42 -78.5h-55q-6 28 -25.5 44t-46.5 16q-42 0 -68 -36t-26 -94v-29q6 29 31.5 50t67.5 21q57 0 91 -33t34 -87q0 -55 -36 -88t-97 -33q-72 0 -109 49t-37 132q0 89 40.5 142zM222.5 505.5q-20.5 20.5 -54.5 20.5t-55 -20
t-21 -53t21 -53.5t55 -20.5t54.5 20t20.5 53t-20.5 53.5z" />
    <glyph glyph-name="seven.numr" horiz-adv-x="300" 
d="M21 700h261v-49l-163 -316h-62l163 313l-199 -1v53z" />
    <glyph glyph-name="eight.numr" horiz-adv-x="327" 
d="M42.5 492.5q19.5 24.5 51.5 33.5q-27 9 -43.5 30t-16.5 52q0 43 36.5 71t93.5 28q56 0 93 -28t37 -71q0 -31 -16 -51.5t-43 -30.5q31 -9 50 -33.5t19 -58.5q0 -45 -38 -74t-102 -29t-102.5 29t-38.5 74q0 34 19.5 58.5zM215.5 643.5q-20.5 16.5 -51.5 16.5t-51.5 -16.5
t-20.5 -41.5q0 -26 20.5 -41.5t51.5 -15.5q32 0 52 15.5t20 41.5q0 25 -20.5 41.5zM222.5 483q-23.5 18 -58.5 18t-58.5 -18t-23.5 -44t23.5 -43t58.5 -17t58.5 17t23.5 43t-23.5 44z" />
    <glyph glyph-name="nine.numr" horiz-adv-x="323" 
d="M260.5 384q-40.5 -53 -109.5 -53q-49 0 -84 28.5t-42 78.5h55q6 -28 25.5 -44t46.5 -16q42 0 68 36t26 94v29q-6 -29 -31.5 -50t-67.5 -21q-57 0 -91 33t-34 87q0 55 36 88t97 33q72 0 109 -49t37 -132q0 -89 -40.5 -142zM100.5 532.5q20.5 -20.5 54.5 -20.5t55 20t21 53
t-21 53.5t-55 20.5t-54.5 -20t-20.5 -53t20.5 -53.5z" />
    <glyph glyph-name="uni2080.zero" horiz-adv-x="341" 
d="M277 218q40 -52 40 -136t-40 -136t-106 -52q-67 0 -107 51.5t-40 136.5t40 136.5t107 51.5q66 0 106 -52zM106.5 179q-23.5 -37 -23.5 -97q0 -33 7 -58l145 154q-24 38 -64 38q-41 0 -64.5 -37zM234.5 -14q23.5 37 23.5 96q0 33 -7 57l-144 -154q23 -36 64 -36
q40 0 63.5 37z" />
    <glyph glyph-name="zero.dnom.zero" horiz-adv-x="341" 
d="M277 318q40 -52 40 -136t-40 -136t-106 -52q-67 0 -107 51.5t-40 136.5t40 136.5t107 51.5q66 0 106 -52zM106.5 279q-23.5 -37 -23.5 -97q0 -33 7 -58l145 154q-24 38 -64 38q-41 0 -64.5 -37zM234.5 86q23.5 37 23.5 96q0 33 -7 57l-144 -154q23 -36 64 -36
q40 0 63.5 37z" />
    <glyph glyph-name="zero.numr.zero" horiz-adv-x="341" 
d="M277 655q40 -52 40 -136t-40 -136t-106 -52q-67 0 -107 51.5t-40 136.5t40 136.5t107 51.5q66 0 106 -52zM106.5 616q-23.5 -37 -23.5 -97q0 -33 7 -58l145 154q-24 38 -64 38q-41 0 -64.5 -37zM234.5 423q23.5 37 23.5 96q0 33 -7 57l-144 -154q23 -36 64 -36
q40 0 63.5 37z" />
    <glyph glyph-name="uni2070.zero" horiz-adv-x="341" 
d="M277 755q40 -52 40 -136t-40 -136t-106 -52q-67 0 -107 51.5t-40 136.5t40 136.5t107 51.5q66 0 106 -52zM106.5 716q-23.5 -37 -23.5 -97q0 -33 7 -58l145 154q-24 38 -64 38q-41 0 -64.5 -37zM234.5 523q23.5 37 23.5 96q0 33 -7 57l-144 -154q23 -36 64 -36
q40 0 63.5 37z" />
    <glyph glyph-name="backslash.case" horiz-adv-x="321" 
d="M93 700l234 -700h-83l-233 700h82z" />
    <glyph glyph-name="periodcentered.case" horiz-adv-x="246" 
d="M82 389.5q16 15.5 41 15.5t41 -15.5t16 -40.5t-16 -40.5t-41 -15.5t-41 15.5t-16 40.5t16 40.5z" />
    <glyph glyph-name="colon.case" horiz-adv-x="206" 
d="M62 550.5q16 15.5 41 15.5t41 -15.5t16 -40.5t-16 -40.5t-41 -15.5t-41 15.5t-16 40.5t16 40.5zM62 175.5q16 15.5 41 15.5t41 -15.5t16 -40.5t-16 -40.5t-41 -15.5t-41 15.5t-16 40.5t16 40.5z" />
    <glyph glyph-name="semicolon.case" horiz-adv-x="206" 
d="M150.5 160.5q21.5 -29.5 21.5 -72.5q0 -64 -37.5 -100t-103.5 -38v47q44 1 64 25t20 55q0 9 -1 13q-12 -12 -34 -12q-23 0 -38 14t-15 40q0 25 17.5 41.5t48.5 16.5q36 0 57.5 -29.5zM59 550.5q16 15.5 41 15.5t41 -15.5t16 -40.5t-16 -40.5t-41 -15.5t-41 15.5t-16 40.5
t16 40.5z" />
    <glyph glyph-name="slash.case" horiz-adv-x="321" 
d="M236 700h82l-233 -700h-83z" />
    <glyph glyph-name="braceleft.case" horiz-adv-x="346" 
d="M223.5 603.5q-23.5 -23.5 -23.5 -69.5q0 -25 5 -46q1 -7 2 -16t1 -21q0 -42 -23 -67.5t-58 -32.5q36 -9 59 -34.5t23 -66.5q0 -11 -4 -37q-5 -21 -5 -47q0 -46 23.5 -69.5t73.5 -24.5h29v-72h-38q-78 0 -120.5 32t-42.5 107q0 11 4 45q4 30 4 39q0 93 -101 93v70
q101 0 101 92q0 9 -4 37q-4 32 -4 46q0 75 42.5 107t120.5 32h38v-72h-29q-50 -1 -73.5 -24.5z" />
    <glyph glyph-name="braceright.case" horiz-adv-x="346" 
d="M314 386v-70q-101 0 -101 -93q0 -9 4 -39q4 -34 4 -45q0 -75 -42.5 -107t-120.5 -32h-38v72h29q50 1 73.5 24.5t23.5 69.5q0 26 -5 47q-4 26 -4 37q0 41 23 66.5t59 34.5q-35 7 -58 32.5t-23 67.5q0 12 1 21t2 16q5 21 5 46q0 46 -23.5 69.5t-73.5 24.5h-29v72h38
q78 0 120.5 -32t42.5 -107q0 -14 -4 -46q-4 -28 -4 -37q0 -92 101 -92z" />
    <glyph glyph-name="bracketleft.case" horiz-adv-x="303" 
d="M63 700h220v-72h-143v-556h143v-72h-220v700z" />
    <glyph glyph-name="bracketright.case" horiz-adv-x="303" 
d="M240 700v-700h-220v72h143v556h-143v72h220z" />
    <glyph glyph-name="parenleft.case" horiz-adv-x="261" 
d="M77.5 538.5q27.5 93.5 72.5 161.5h86q-50 -71 -77.5 -163.5t-27.5 -186.5q0 -95 27.5 -187.5t77.5 -162.5h-86q-44 67 -72 160.5t-28 189.5q0 95 27.5 188.5z" />
    <glyph glyph-name="parenright.case" horiz-adv-x="261" 
d="M25 0q50 70 77.5 162.5t27.5 187.5q0 94 -27.5 186.5t-77.5 163.5h86q45 -68 72.5 -161.5t27.5 -188.5q0 -96 -28 -189.5t-72 -160.5h-86z" />
    <glyph glyph-name="emdash.case" horiz-adv-x="931" 
d="M57 392h817v-72h-817v72z" />
    <glyph glyph-name="endash.case" horiz-adv-x="599" 
d="M57 320v72h485v-72h-485z" />
    <glyph glyph-name="hyphen.case" horiz-adv-x="447" 
d="M57 320v72h333v-72h-333z" />
    <glyph glyph-name="guillemotleft.case" horiz-adv-x="592" 
d="M300 605l-157 -255l157 -255h-83l-159 255l159 255h83zM534 604l-157 -255l157 -255h-83l-159 255l159 255h83z" />
    <glyph glyph-name="guillemotright.case" horiz-adv-x="592" 
d="M292 605h83l159 -255l-159 -255h-83l157 255zM58 604h83l159 -255l-159 -255h-83l157 255z" />
    <glyph glyph-name="guilsinglleft.case" horiz-adv-x="355" 
d="M212 605h90l-157 -255l157 -255h-90l-159 255z" />
    <glyph glyph-name="guilsinglright.case" horiz-adv-x="355" 
d="M143 605l159 -255l-159 -255h-90l157 255l-157 255h90z" />
    <glyph glyph-name="dotmath.case" horiz-adv-x="206" 
d="M62 399.5q16 15.5 41 15.5t41 -15.5t16 -40.5t-16 -40.5t-41 -15.5t-41 15.5t-16 40.5t16 40.5z" />
    <glyph glyph-name="plus.case" horiz-adv-x="524" 
d="M224 566h75v-175h167v-69h-167v-176h-75v176h-166v69h166v175z" />
    <glyph glyph-name="minus.case" horiz-adv-x="524" 
d="M58 322v69h408v-69h-408z" />
    <glyph glyph-name="multiply.case" horiz-adv-x="524" 
d="M117 551l147 -147l145 146l49 -49l-145 -145l147 -147l-53 -53l-147 147l-145 -145l-49 49l146 145l-147 147z" />
    <glyph glyph-name="divide.case" horiz-adv-x="524" 
d="M222.5 583q15.5 15 40.5 15q24 0 39.5 -15t15.5 -40t-15.5 -40t-39.5 -15q-25 0 -40.5 15t-15.5 40t15.5 40zM58 322v69h408v-69h-408zM222.5 223q15.5 15 40.5 15q24 0 39.5 -15t15.5 -40t-15.5 -40t-39.5 -15q-25 0 -40.5 15t-15.5 40t15.5 40z" />
    <glyph glyph-name="equal.case" horiz-adv-x="524" 
d="M68 415v70h388v-70h-388zM68 207v69h388v-69h-388z" />
    <glyph glyph-name="notequal.case" horiz-adv-x="524" 
d="M456 415h-135l-47 -139h182v-69h-206l-33 -99h-72l33 99h-110v69h134l47 139h-181v70h204l32 94h72l-32 -94h112v-70z" />
    <glyph glyph-name="greater.case" horiz-adv-x="524" 
d="M452 393v-78l-380 -170v80l288 129l-288 129v80z" />
    <glyph glyph-name="less.case" horiz-adv-x="524" 
d="M72 315v78l380 170v-80l-288 -129l288 -129v-80z" />
    <glyph glyph-name="greaterequal.case" horiz-adv-x="524" 
d="M452 393v-78l-380 -170v80l288 129l-288 129v80zM72 22v70h380v-70h-380z" />
    <glyph glyph-name="lessequal.case" horiz-adv-x="524" 
d="M72 315v78l380 170v-80l-288 -129l288 -129v-80zM72 22v70h380v-70h-380z" />
    <glyph glyph-name="plusminus.case" horiz-adv-x="524" 
d="M224 566h75v-175h167v-69h-167v-176h-75v176h-166v69h166v175zM58 22v69h408v-69h-408z" />
    <glyph glyph-name="approxequal.case" horiz-adv-x="524" 
d="M61 152q0 68 31 105.5t85 37.5q34 0 57.5 -11t48.5 -31q19 -14 31 -20.5t27 -6.5q30 0 42 18.5t12 51.5h69q0 -68 -31 -105t-86 -37q-35 0 -58 11t-49 30q-18 14 -30 20.5t-27 6.5q-29 0 -41 -18.5t-12 -51.5h-69zM61 370q0 68 31 105.5t85 37.5q34 0 57.5 -11t48.5 -31
q19 -14 31 -20.5t27 -6.5q30 0 42 18.5t12 51.5h69q0 -68 -31 -105t-86 -37q-35 0 -58 11t-49 30q-18 14 -30 20.5t-27 6.5q-29 0 -41 -18.5t-12 -51.5h-69z" />
    <glyph glyph-name="asciitilde.case" horiz-adv-x="524" 
d="M61 274q0 68 31 105.5t85 37.5q34 0 57.5 -11t48.5 -31q19 -14 31 -20.5t27 -6.5q30 0 42 18.5t12 51.5h69q0 -68 -31 -105t-86 -37q-35 0 -58 11t-49 30q-18 14 -30 20.5t-27 6.5q-29 0 -41 -18.5t-12 -51.5h-69z" />
    <glyph glyph-name="logicalnot.case" horiz-adv-x="524" 
d="M58 415h367v-235h-73v165h-294v70z" />
    <glyph glyph-name="arrowup.case" horiz-adv-x="734" 
d="M46 384l321 323l321 -323l-60 -60l-219 223v-548h-84v548l-219 -223z" />
    <glyph glyph-name="uni2197.case" horiz-adv-x="652" 
d="M151 700l455 1l-1 -455h-85l3 314l-418 -419l-59 59l419 418l-314 -3v85z" />
    <glyph glyph-name="arrowright.case" horiz-adv-x="800" 
d="M431 674l323 -321l-323 -321l-60 60l223 219h-548v84h548l-223 219z" />
    <glyph glyph-name="uni2198.case" horiz-adv-x="652" 
d="M151 1v85l314 -3l-419 418l59 59l418 -419l-3 314h85l1 -455z" />
    <glyph glyph-name="arrowdown.case" horiz-adv-x="734" 
d="M46 315l60 60l219 -223v548h84v-548l219 223l60 -60l-321 -323z" />
    <glyph glyph-name="uni2199.case" horiz-adv-x="652" 
d="M547 560l59 -59l-419 -418l314 3v-85l-455 -1l1 455h85l-3 -314z" />
    <glyph glyph-name="arrowleft.case" horiz-adv-x="800" 
d="M369 674l60 -60l-223 -219h548v-84h-548l223 -219l-60 -60l-323 321z" />
    <glyph glyph-name="uni2196.case" horiz-adv-x="652" 
d="M501 700v-85l-314 3l419 -418l-59 -59l-418 419l3 -314h-85l-1 455z" />
    <glyph glyph-name="arrowboth.case" horiz-adv-x="965" 
d="M957 350l-294 -293l-59 59l191 192h-625l191 -191l-59 -59l-294 292l60 60l233 234l60 -59l-193 -192h629l-193 192l60 59z" />
    <glyph glyph-name="bar.case" horiz-adv-x="222" 
d="M68 700h86v-700h-86v700z" />
    <glyph glyph-name="brokenbar.case" horiz-adv-x="222" 
d="M68 700h86v-317h-86v317zM68 313h86v-313h-86v313z" />
    </font>
</defs>
</svg>
